<?xml version="1.0" standalone="no"?>
<!DOCTYPE svg PUBLIC "-//W3C//DTD SVG 1.1//EN" "http://www.w3.org/Graphics/SVG/1.1/DTD/svg11.dtd" >
<svg xmlns="http://www.w3.org/2000/svg">
<metadata>Generated by IcoMoon</metadata>
<defs>
<font id="icomoon" horiz-adv-x="1024">
<font-face units-per-em="1024" ascent="960" descent="-64" />
<missing-glyph horiz-adv-x="1024" />
<glyph unicode="&#x20;" horiz-adv-x="512" d="" />
<glyph unicode="&#xe900;" glyph-name="1" d="M1000.334 38.457l-186.027 184.946c61.839 76.494 99.271 174.943 99.271 282.135 0 0.032 0 0.064 0 0.095v-0.005c0 251.051-204.686 454.485-457.216 454.485-252.473 0-457.159-203.435-457.159-454.485 0-250.994 204.686-454.428 457.159-454.428 0.083 0 0.181 0 0.279 0 104.139 0 200.125 34.903 276.9 93.648l-1.097-0.806 187.051-185.913c10.377-10.274 24.657-16.621 40.42-16.621s30.043 6.347 40.424 16.625l-0.005-0.005c10.326 10.257 16.718 24.464 16.718 40.164s-6.392 29.907-16.715 40.161l-0.003 0.003zM456.363 164.807c-189.383 0-342.869 152.576-342.869 340.821s153.486 340.878 342.869 340.878 342.926-152.633 342.926-340.878-153.543-340.821-342.926-340.821z" />
<glyph unicode="&#xe901;" glyph-name="2" d="M74.012 174.137c61.554 41.131 123.164 82.261 184.832 123.335 24.917 16.612 45.227 13.141 63.716-10.752 17.237-22.244 34.361-44.544 51.883-66.617 13.653-17.294 33.337-21.618 52.622-11.435 18.148 9.557 36.124 19.456 53.305 30.777 47.104 30.891 88.178 68.949 127.886 108.544 55.296 55.068 107.008 112.924 142.848 183.239 11.947 23.495 8.704 42.325-11.89 58.425-22.187 17.351-44.487 34.532-66.56 51.94-20.935 16.498-24.405 37.66-9.671 59.847 41.756 63.033 83.684 126.009 125.611 188.928 15.076 22.528 36.58 27.42 59.676 13.767 25.998-15.474 51.826-31.061 77.653-46.763 25.6-15.588 41.472-38.059 48.185-67.356 2.56-10.98 7.111-48.299 7.111-63.943v-16.384c0-1.195-2.048-36.068-4.21-46.706-12.459-61.668-37.49-118.329-69.291-172.089-43.918-74.468-98.133-141.141-157.355-203.89-23.211-24.633-47.218-48.583-71.623-72.078-20.48-19.797-41.927-38.514-63.488-57.060-38.537-33.45-81.020-65.004-125.815-93.222l-4.29-2.522c-40.277-24.917-82.318-46.251-127.147-61.781-26.457-9.742-57.231-16.913-89.162-20.174l-1.632-0.135c-12.117-1.138-31.801-0.398-39.936 0-17.874 1.479-30.986 2.832-44.037 4.386l5.921-0.574c-39.424 5.12-69.461 23.893-88.974 59.449-12.629 23.040-26.852 45.227-40.334 67.812-15.303 25.714-10.695 46.478 14.165 63.033z" />
<glyph unicode="&#xe902;" glyph-name="3" horiz-adv-x="1229" d="M1187.021-40.653c-18.705-14.746-40.141-21.845-63.693-23.62-2.731-0.137-5.53-0.068-8.329-0.068-332.117 0-664.235-0.068-996.352 0.068-48.265 0.068-83.149 22.323-104.994 64.99-6.895 13.449-8.055 27.921-8.055 42.53-0.137 176.196-0.068 352.324-0.068 528.521l0.205 18.227s8.943-9.967 11.605-12.698c46.694-47.855 105.131-80.009 159.539-117.419 87.518-60.143 175.036-120.286 261.53-181.862 37.274-26.487 75.503-50.722 119.262-65.741 48.538-16.794 95.027-11.127 141.38 8.602 40.619 17.271 75.776 42.803 111.411 67.857 34.398 26.339 120.704 86.614 207.598 146.091l57.345 37.069c38.434 25.941 77.824 50.517 113.869 79.735 8.943 7.305 16.589 15.906 25.054 23.62 4.303 4.64 8.506 9.622 12.47 14.796l0.364 0.495v-556.988c-1.161-31.198-15.974-55.091-40.141-74.206zM1110.903 592.93c-127.044-87.859-254.703-174.831-381.201-263.441-18.413-13.017-39.4-25.179-61.464-35.413l-2.502-1.042c-38.161-17.681-74.547-12.834-110.729 6.076-43.827 22.938-82.671 53.043-123.017 80.964-70.042 48.401-140.288 96.597-210.193 145.203-41.574 29.013-85.333 55.091-124.041 87.859-38.775 32.768-74.411 69.769-87.45 119.808-12.561 47.991-6.622 94.754 30.788 132.915 19.115 19.524 43.145 25.532 69.154 26.965 2.799 0.205 5.53 0.068 8.329 0.068h997.308c47.582-0.068 81.101-23.142 103.697-63.693 5.939-10.718 5.257-22.733 7.578-34.133v-40.141c-4.642-37.751-23.484-68.949-46.763-97.826-20.061-24.564-42.934-45.746-68.404-63.453l-1.091-0.718z" />
<glyph unicode="&#xe903;" glyph-name="4" horiz-adv-x="1463" d="M1061.595 29.111c-28.891-29.257-80.823-49.006-110.738-19.529-28.891 28.306-28.891 117.906 0 146.213l219.429 219.502h-1097.143c-41.691 0-73.143 29.55-73.143 70.51s31.451 75.703 73.143 75.703h1097.143l-219.429 219.355c-28.891 29.33-28.891 117.979 0 146.286 29.915 29.403 81.92 5.778 110.738-23.625l377.271-365.202c13.786-13.044 22.366-31.467 22.366-51.895s-8.58-38.851-22.333-51.864l-0.033-0.031-377.271-365.422z" />
<glyph unicode="&#xe904;" glyph-name="5" horiz-adv-x="3291" d="M401.262 29.111c28.891-29.33 80.823-49.006 110.738-19.602 28.818 28.306 28.818 117.979 0 146.286l-219.429 219.429h2925.714c41.618 0 73.143 29.623 73.143 70.583s-31.525 75.63-73.143 75.63h-2925.714l219.429 219.429c28.818 29.33 28.818 117.979 0 146.359-29.915 29.33-81.92 5.778-110.738-23.771l-377.271-365.129c-13.828-13.037-22.438-31.479-22.438-51.931s8.61-38.894 22.403-51.898l0.035-0.033 377.271-365.349z" />
<glyph unicode="&#xe905;" glyph-name="6" horiz-adv-x="1071" d="M1027.188 569.763h-63.279c-0.251-0.007-0.547-0.012-0.844-0.012-16.915 0-30.627 13.712-30.627 30.627s13.712 30.627 30.627 30.627c0.297 0 0.593-0.004 0.887-0.013l-0.043 0.001h63.279c16.908 0 30.615-13.707 30.615-30.615s-13.707-30.615-30.615-30.615v0zM974.801 818.781l-53.015-30.604c-13.661-7.889-32.652-4.585-41.565 10.775-7.843 13.521-5.562 32.698 10.938 42.24l53.039 30.627c4.228 2.344 9.271 3.724 14.636 3.724 16.915 0 30.627-13.712 30.627-30.627 0-11.009-5.809-20.662-14.529-26.060l-0.131-0.076zM921.786 412.602l53.015-30.627c9.518-5.313 15.849-15.323 15.849-26.812 0-16.902-13.702-30.604-30.604-30.604-5.857 0-11.33 1.646-15.982 4.5l0.133-0.076-53.039 30.604c-9.211 5.393-15.3 15.239-15.3 26.508 0 16.907 13.706 30.613 30.613 30.613 5.639 0 10.921-1.524 15.458-4.184l-0.144 0.078zM688.361 300.73v-98.327h30.604c16.908 0 30.615-13.707 30.615-30.615s-13.707-30.615-30.615-30.615v0h-33.699c-12.715-60.116-59.269-106.662-118.386-119.188l-1.003-0.178v-33.699c0-16.908-13.707-30.615-30.615-30.615s-30.615 13.707-30.615 30.615v0 33.699c-60.11 12.712-106.654 59.255-119.188 118.362l-0.178 1.004h-33.699c-0.251-0.007-0.547-0.012-0.844-0.012-16.915 0-30.627 13.712-30.627 30.627s13.712 30.627 30.627 30.627c0.297 0 0.593-0.004 0.887-0.013l-0.043 0.001h30.604v98.351c-126.045 64.605-205.103 204.73-178.572 359.052 28.43 158.543 165.299 277.299 329.905 277.299 0.617 0 1.233-0.002 1.85-0.005h-0.095c184.087-0.163 336.78-148.48 336.78-336.71 0-126.836-71.471-242.316-183.692-299.66zM535.273 79.965c39.913 0 73.937 25.6 86.575 61.254h-173.172c13.026-35.958 46.857-61.197 86.591-61.254h0.007zM534.598 875.799c-0.446 0.003-0.974 0.004-1.502 0.004-134.335 0-246.023-96.965-268.891-224.722l-0.246-1.656c-21.737-126.371 44.544-250.252 161.117-301.289 11.148-4.864 18.339-15.895 18.339-28.044v-117.69h183.715v117.69c0 12.148 7.191 23.18 18.316 28.044 98.066 43.561 165.245 140.046 165.376 252.236v0.017c0 152.692-123.439 275.409-276.224 275.409zM630.831 553.658l12.311-71.703c0.276-1.545 0.434-3.323 0.434-5.138 0-16.915-13.712-30.627-30.627-30.627-5.205 0-10.107 1.299-14.4 3.589l0.165-0.080-64.396 33.839-64.396-33.839c-4.135-2.222-9.048-3.528-14.266-3.528-16.902 0-30.604 13.702-30.604 30.604 0 1.83 0.161 3.623 0.469 5.365l-0.027-0.184 12.311 71.703-52.108 50.781c-5.704 5.564-9.242 13.326-9.242 21.914 0 15.351 11.302 28.062 26.039 30.266l0.168 0.021 72.006 10.473 32.186 65.233c5.115 10.194 15.486 17.068 27.462 17.068s22.347-6.874 27.382-16.891l0.080-0.176 32.186-65.233 72.006-10.473c14.894-2.247 26.181-14.956 26.181-30.302 0-8.578-3.527-16.333-9.209-21.893l-52.113-50.787zM569.228 608.838c-10.166 1.529-18.58 7.866-22.96 16.58l-0.080 0.176-11.869 24.041-11.869-24.041c-4.466-8.885-12.877-15.219-22.87-16.735l-0.17-0.021-26.554-3.84 19.223-18.735c7.191-7.028 10.496-17.152 8.797-27.089l-4.538-26.438 23.738 12.497c4.468 2.351 9.356 3.491 14.243 3.491s9.798-1.14 14.243-3.491l23.738-12.497-4.538 26.438c-0.281 1.556-0.441 3.347-0.441 5.175 0 8.592 3.546 16.356 9.255 21.908l0.007 0.007 19.177 18.735-26.531 3.84zM179.386 359.587l-53.039-30.604c-4.435-2.646-9.781-4.211-15.492-4.211-16.902 0-30.604 13.702-30.604 30.604 0 11.336 6.163 21.232 15.321 26.521l0.148 0.079 53.039 30.627c4.198 2.303 9.198 3.658 14.515 3.658 16.915 0 30.627-13.712 30.627-30.627 0-10.949-5.746-20.557-14.387-25.971l-0.128-0.075zM148.759 788.177l-53.039 30.604c-9.217 5.394-15.31 15.245-15.31 26.519 0 16.913 13.71 30.623 30.623 30.623 5.638 0 10.921-1.524 15.458-4.182l-0.144 0.078 53.039-30.627c8.769-5.49 14.515-15.097 14.515-26.046 0-16.915-13.712-30.627-30.627-30.627-5.317 0-10.317 1.355-14.674 3.738l0.16-0.080zM137.263 600.39c0-16.919-13.708-30.627-30.627-30.627h-63.279c-16.548 0.471-29.783 13.997-29.783 30.615s13.235 30.145 29.739 30.614l0.043 0.001h63.279c16.919 0 30.627-13.708 30.627-30.604z" />
<glyph unicode="&#xe906;" glyph-name="7" horiz-adv-x="667" d="M538.624 385.774v-105.186h90.136v-81.61l-295.507-240.188-295.507 240.188v81.61h90.136v105.186c-71.946 59.683-117.427 149.107-117.427 249.153 0 0.046 0 0.092 0 0.139v-0.007c0 178.319 144.789 323.37 322.798 323.37 177.985 0 322.798-145.051 322.798-323.37 0-100.209-45.747-189.94-117.427-249.284zM102.162 222.006l231.091-187.773 231.067 187.773h-84.159v125.166c-42.586-22.361-93.043-35.483-146.565-35.483-0.121 0-0.241 0-0.362 0h0.018c-0.112 0-0.245 0-0.378 0-53.51 0-103.956 13.122-148.294 36.323l1.764-0.84v-125.166h-84.182zM333.252 899.87c-145.765 0-264.335-118.808-264.335-264.811 0-146.027 118.57-264.787 264.335-264.787 145.741 0 264.335 118.76 264.335 264.787 0 146.003-118.593 264.811-264.335 264.811zM316.535 664.35h33.435c49.676 0 90.112-40.484 90.112-90.279-0.040-45.368-33.52-82.904-77.12-89.291l-0.49-0.059v-41.77h-58.463v41.698c-43.767 6.182-77.071 43.37-77.11 88.346v0.004h58.487c0-16.884 13.693-30.601 30.553-30.601h34.030c17.505 0 31.696 14.191 31.696 31.696s-14.191 31.696-31.696 31.696h-33.435c-49.823 0.031-90.2 40.428-90.2 90.255 0 45.409 33.534 82.985 77.188 89.316l0.486 0.058v41.746h58.463v-41.841c43.75-6.806 76.844-44.197 76.871-89.323v-0.003h-58.463c0 17.503-14.217 31.768-31.673 31.768h-32.673c-17.141-0.485-30.851-14.495-30.851-31.708s13.71-31.224 30.806-31.707l0.045-0.001z" />
<glyph unicode="&#xe907;" glyph-name="8" d="M1024-18.894c0 0.017 0 0.038 0 0.058 0 36.964-22.305 68.717-54.19 82.536l-0.582 0.224-255.101 108.519v63.613c26.029 32.452 43.844 72.544 49.694 116.42l0.132 1.215h52.149c49.679 0.071 89.93 40.332 89.987 90.007v129.004c-0.045 45.268-33.472 82.716-76.988 89.055l-0.487 0.058c-6.494 195.209-115.637 298.209-316.616 298.209-201.004 0-310.122-102.999-316.616-298.209-44.003-6.397-77.429-43.845-77.474-89.108v-129.004c0.043-49.686 40.303-89.955 89.982-90.012h52.154c5.985-45.087 23.79-85.177 50.166-118.106l-0.364 0.471v-63.613l-255.076-108.519c-32.466-14.043-54.772-45.797-54.772-82.761 0-0.021 0-0.041 0-0.062v0.003-15.085c0.014-16.56 13.435-29.981 29.994-29.996h964.010c0.007 0 0.016 0 0.025 0 16.552 0 29.971 13.418 29.971 29.971 0 0.009 0 0.018 0 0.026v-0.001 15.085zM654.161 151.39c0.025-0.699 1.723-73.528-41.285-118.309-23.627-24.601-57.569-37.064-100.876-37.064-43.158 0-77 12.388-100.602 36.789-43.532 45.031-41.584 117.96-41.559 118.584l0.025 1.199v29.721c41.085-26 90.062-39.961 142.136-39.961 52.049 0 101.051 13.961 142.136 39.961v-29.721l0.025-1.199zM706.085 399.747l-57.069-38.063c-17.099-11.562-38.178-18.457-60.868-18.457-0.052 0-0.104 0-0.156 0h-50.742c-16.203-0.482-29.155-13.733-29.155-30.008s12.952-29.526 29.111-30.007l0.044-0.001h50.75c0.037 0 0.082 0 0.127 0 35.109 0 67.726 10.674 94.781 28.954l-0.6-0.382 11.489 7.643c-27.074-69.857-96.306-117.086-181.797-117.086-110.642 0-194.085 79.123-194.085 184.020v243.212c11.813 54.971 28.947 89.937 49.602 101.151 20.58 11.139 50.476-0.475 79.372-11.689 22.528-8.741 43.807-17.008 65.111-17.008 21.504 0 42.533 8.342 64.787 17.183 28.922 11.514 56.27 22.353 76.525 11.788 14.761-7.692 35.79-31.644 52.773-101.826v-229.426zM846.099 572.703v-128.999c0-16.534-13.462-29.996-29.996-29.996h-50.001v189.015h50.001c16.534 0 29.996-13.462 29.996-30.021zM308.873 826.505c41.534 48.777 109.893 73.503 203.127 73.503s161.567-24.726 203.127-73.503c32.718-38.363 50.626-93.434 53.398-163.79h-9.191c-18.132 64.337-43.258 103.224-78.299 121.481-44.606 23.277-89.962 5.27-126.402-9.216-16.034-6.369-32.618-12.962-42.633-12.962-10.090 0-27.024 6.569-43.383 12.937-37.738 14.661-84.717 32.918-129.723 8.492-33.942-18.432-58.518-58.043-74.777-120.732h-8.642c2.747 70.356 20.68 125.428 53.398 163.79zM177.901 443.704v128.999c0 16.559 13.462 30.021 29.996 30.021h50.001v-189.015h-50.001c-16.555 0.028-29.967 13.441-29.996 29.993v0.003zM78.249 8.704l235.045 100.002c5.27-32.568 18.332-76.85 50.401-112.69h-299.732c3.172 5.57 8.142 10.065 14.286 12.688zM660.305-3.984c32.044 35.84 45.131 80.122 50.401 112.69l235.045-100.002c6.144-2.622 11.089-7.118 14.286-12.688h-299.732z" />
<glyph unicode="&#xe908;" glyph-name="9" d="M512-64c-282.77 0-512 229.23-512 512s229.23 512 512 512v0c282.77 0 512-229.23 512-512s-229.23-512-512-512v0zM512 789.333c-179.371 0-341.333-161.963-341.333-341.333 0-179.285 161.963-341.333 341.333-341.333 179.285 0 341.333 162.048 341.333 341.333 0 179.371-162.048 341.333-341.333 341.333z" />
<glyph unicode="&#xe909;" glyph-name="10" horiz-adv-x="981" d="M887.168 363.861l-752.384-376.192c-80.981-38.912-134.784 1.536-134.784 76.373v768c0 86.656 87.851 104.405 134.784 76.8l752.384-376.149c168.491-84.011 34.773-149.333 0-168.405v-0.427z" />
<glyph unicode="&#xe90a;" glyph-name="11" horiz-adv-x="1138" d="M1110.903 842.877l24.462-84.787c0.56-1.854 0.882-3.984 0.882-6.19 0-12.241-9.923-22.164-22.164-22.164-0.014 0-0.028 0-0.042 0h-209.099v-150.71h66.31c12.265 0 22.209-9.944 22.209-22.232v-91.864h61.394c12.265 0 22.209-9.967 22.209-22.232v-474.385c0-12.266-9.943-22.209-22.209-22.209v0h-1032.67c-12.256 0.013-22.187 9.951-22.187 22.209v0 196.085c0 12.265 9.944 22.232 22.187 22.232h322.037v116.918c0 12.288 9.921 22.232 22.187 22.232h322.037v116.918c0 12.265 9.921 22.232 22.187 22.232h61.417v91.864c0 12.288 9.921 22.232 22.187 22.232h66.31v354.805c0 12.288 9.944 22.232 22.209 22.232h231.287c12.263-0.004 22.202-9.946 22.202-22.209 0-2.205-0.321-4.336-0.92-6.347l0.040 0.157-24.462-84.787zM344.223 142.188h-299.85v-151.643h299.85v151.643zM688.447 281.316h-299.85v-290.77h299.85v290.77zM732.82 420.489v-429.943h299.85v429.943h-299.85zM816.424 534.585v-69.655h132.642v69.655h-132.642zM1084.53 911.622h-179.587v-137.444h179.587l-18.045 62.532c-0.552 1.847-0.87 3.97-0.87 6.167s0.318 4.319 0.91 6.325l-0.040-0.158 18.045 62.578zM595.513 501.749c-3.921-6.57-10.993-10.901-19.076-10.901-7.858 0-14.761 4.094-18.69 10.266l-0.053 0.090-40.073 63.442-404.503-261.575c-3.411-2.218-7.584-3.537-12.066-3.537-1.683 0-3.323 0.186-4.9 0.539l0.149-0.028c-5.918 1.343-10.835 4.893-13.941 9.719l-0.053 0.088-63.351 100.238c-2.157 3.368-3.439 7.477-3.439 11.885 0 7.792 4.004 14.648 10.067 18.624l0.085 0.052 404.844 261.757-40.3 63.784c-2.159 3.364-3.441 7.47-3.441 11.875 0 11.41 8.604 20.81 19.678 22.067l0.102 0.009 347.682 38.207c0.726 0.084 1.566 0.132 2.419 0.132 12.266 0 22.209-9.943 22.209-22.209 0-4.207-1.17-8.142-3.202-11.495l0.056 0.099-180.201-303.127zM446.737 759.888l33.041-52.315c2.156-3.365 3.437-7.471 3.437-11.875 0-7.787-4.004-14.64-10.066-18.611l-0.085-0.052-404.844-261.803 39.617-62.669 404.503 261.575c3.398 2.214 7.556 3.531 12.022 3.531 7.855 0 14.759-4.074 18.713-10.224l0.053-0.088 32.745-51.814 138.923 233.768-268.060-29.423z" />
<glyph unicode="&#xe90b;" glyph-name="12" horiz-adv-x="1089" d="M1007.093 771.649v-412.498c-0.099-51.968-42.232-94.062-94.204-94.099l-361.454-0.327v-71.898l167.827-191.793c10.567-13.748 11.068-27.604-2.68-38.171-5.224-4.050-11.871-6.493-19.089-6.493-0.014 0-0.028 0-0.042 0h0.002c-9.434 0-19.957 12.68-26.145 20.676l-119.873 143.861v-95.907c0-17.321-6.623-23.966-23.988-23.966-17.343 0-23.966 6.645-23.966 23.966v95.907l-104.012-152.315c-10.567-13.726-30.284-16.297-44.032-5.73-13.77 10.567-6.384 24.423 4.183 38.171l144.972 197.305-1.111 66.386h-335.654c-51.963 0-95.907 44.032-95.907 95.929v407.552c-37.627 12.353-71.92 51.178-71.92 92.857 0 51.875 43.945 98.958 95.907 98.958h887.067c51.963 0 95.907-44.010 95.907-95.886 0-41.679-34.141-80.133-71.789-92.487zM119.873 360.655c0-17.299 30.633-47.975 47.954-47.975h743.228c17.321 0 47.954 30.676 47.954 47.975v407.552h-839.135v-407.552zM982.975 912.068h-887.067c-17.321 0-47.954-30.655-47.954-47.932 0-17.321 30.633-47.954 47.954-47.954h887.067c17.321 0 47.954 30.633 47.954 47.954 0 17.277-30.633 47.932-47.954 47.932zM719.262 408.609c-86.582 0-143.861 57.366-143.861 143.839 0 86.495 57.279 143.839 143.861 143.839s143.839-57.344 143.839-143.839c0-86.474-57.257-143.839-143.839-143.839zM743.228 648.334v-71.898h71.92c0 32.441-40.394 71.898-71.92 71.898zM719.262 528.482c-17.364 0-23.988 6.645-23.988 23.966v95.886c-36.559-12.92-71.92-54.991-71.92-95.886 0-51.875 49.13-99.175 101.093-99.175 40.938 0 83.51 37.714 90.7 75.21h-95.886zM479.493 408.609c-17.343 0-23.966 6.623-23.966 23.966v119.873c0 17.343 6.623 23.988 23.966 23.988 17.364 0 23.988-6.645 23.988-23.988v-119.873c0-17.343-6.623-23.966-23.988-23.966zM359.62 408.609c-17.343 0-23.966 6.623-23.966 23.966v191.815c0 17.321 6.623 23.944 23.966 23.944 17.364 0 23.988-6.623 23.988-23.944v-191.815c0-17.343-6.623-23.966-23.988-23.966zM239.747 408.609h-23.966c-17.364 0 0 6.623 0 23.966v239.747c0 17.321 6.623 23.966 23.966 23.966s23.988-6.645 23.988-23.966v-239.747c0-17.343-6.645-23.966-23.988-23.966z" />
<glyph unicode="&#xe90c;" glyph-name="13" d="M959.033 709.575l47.445-21.686-246.17-266.536v-389.166c0-0.007 0-0.015 0-0.023 0-52.336-42.42-94.764-94.753-94.777h-568.458c-52.322 0.013-94.731 42.431-94.731 94.754 0 0.016 0 0.032 0 0.048v-0.003 821.589c0 52.361 26.533 106.246 78.848 106.246h598.699c52.315 0 80.395-53.885 80.395-106.246l1.252-84.241 159.266 169.779 31.221-33.701-359.697-384.25-21.299-105.609 136.078 27.216 251.904 266.604zM53.999 34.782c0-17.454 25.668-34.202 43.099-34.202h568.457c17.431 0 41.574 16.748 41.574 34.202v163.271h-653.13v-163.271zM543.835 551.834l163.294 163.271v136.055c0 17.454-9.785 54.454-27.216 54.454h-598.699c-17.431 0-27.216-37.001-27.216-54.454v-598.653h653.13v136.055l-190.487-27.238 27.193 190.51zM380.564 361.324h54.431v-54.409h-54.431v54.409zM326.133 497.402l-81.624-27.216c-16.156-5.507-32.654-33.86-32.745-50.927 0.068-21.868 10.9-57.981 32.745-57.936h81.624v-54.409h-81.624c-44.26 0-67.698 39.617-81.647 81.647-17.886 53.862 27.807 118.147 81.647 136.055l53.453 18.66c20.895 7.045 35.674 26.464 35.674 49.335 0 25.139-17.855 46.107-41.576 50.915l-0.333 0.056c-76.618 15.519-136.897 77.323-156.080 153.168v27.193h54.431v-27.193c13.198-52.201 56.115-98.145 108.84-108.863 60.826-11.856 81.647-52.292 81.647-81.624 0.046-49.63-7.373-93.252-54.431-108.863zM349.753 126.987h63.147v-63.215h-63.147v63.215z" />
<glyph unicode="&#xe90d;" glyph-name="14" d="M967.805 201.718h-205.469l127.060-211.801c2.255-3.67 3.591-8.116 3.591-12.873 0-13.735-11.134-24.869-24.869-24.869-0.043 0-0.086 0-0.129 0h0.007c-8.443 0-16.718 4.305-21.4 12.121l-103.361 172.283v-159.472c0-13.814-11.16-24.952-24.952-24.952s-24.952 11.139-24.952 24.952v159.472l-103.361-172.304c-4.397-7.342-12.31-12.181-21.353-12.181-4.752 0-9.192 1.336-12.965 3.654l0.108-0.062c-7.33 4.415-12.157 12.331-12.157 21.375 0 4.742 1.327 9.174 3.63 12.945l-0.062-0.109 127.060 211.801h-205.469c-27.561 0-49.904 22.343-49.904 49.904v0 71.805l49.904-12.476v-59.329h499.043v399.318h-499.043v-63.070l-49.904 24.952v38.118c0 27.561 22.343 49.904 49.904 49.904v0h499.043c27.561 0 49.904-22.343 49.904-49.904v0-399.276c0-27.566-22.34-49.913-49.903-49.925h-0.001zM219.24 650.919c-82.662 0.083-149.651 67.072-149.734 149.726v0.008c0 82.547 67.166 149.734 149.734 149.755 82.547 0 149.713-67.187 149.713-149.755 0-82.589-67.166-149.734-149.713-149.734zM219.24 900.483c-54.521-0.814-98.406-45.202-98.406-99.84s43.885-99.026 98.329-99.839l0.077-0.001c55.14 0 99.84 44.7 99.84 99.84s-44.7 99.84-99.84 99.84v0zM119.411 600.973h199.638c7.753 0 15.381-1.797 22.319-5.266l199.617-99.83c4.598-2.299 8.61-5.35 12.204-8.84l307.931 88.022c2.090 0.637 4.492 1.003 6.98 1.003 11.308 0 20.847-7.572 23.823-17.923l0.043-0.175c0.621-2.071 0.978-4.45 0.978-6.913 0-11.322-7.554-20.88-17.897-23.909l-0.176-0.044-306.301-87.542v-38.201c0-0.016 0-0.034 0-0.053 0-27.55-22.334-49.883-49.883-49.883-4.305 0-8.482 0.545-12.467 1.571l0.346-0.076-144.217 36.070-43.614-392.464c-2.861-25.071-23.957-44.366-49.559-44.366-0.011 0-0.023 0-0.034 0h-99.828c-0.003 0-0.006 0-0.009 0-26.167 0-47.628 20.148-49.717 45.777l-0.012 0.178-18.181 228.54h-31.89c-27.56 0.032-49.889 22.382-49.889 49.946 0 3.147 0.291 6.226 0.848 9.211l-0.048-0.309 49.904 274.516c4.387 23.447 24.693 40.957 49.089 40.96v0zM147.498 276.574l21.817-274.536h99.83l49.904 449.223 199.617-49.925v49.925l-199.617 99.809h-74.877v-151.824c0-13.781-11.171-24.952-24.952-24.952s-24.952 11.171-24.952 24.952v0 151.824h-74.856l-49.904-274.495h77.991z" />
<glyph unicode="&#xe90e;" glyph-name="15" horiz-adv-x="1365" d="M1308.126 821.487l-833.946-833.946-417.041 417.109 119.125 119.125 297.916-297.916 714.82 714.82 119.125-119.194z" />
<glyph unicode="&#xe90f;" glyph-name="16" horiz-adv-x="1365" d="M1251.157 904.789l-786.944-786.944-339.797 339.797c-11.96 11.543-28.263 18.656-46.228 18.656-18.771 0-35.729-7.766-47.835-20.259l-0.017-0.018c-11.544-11.96-18.657-28.264-18.657-46.229s7.113-34.269 18.676-46.249l-0.019 0.020 386.816-386.859c12.054-12.022 28.69-19.456 47.061-19.456s35.007 7.434 47.063 19.457l833.962 834.004c12.039 12.039 19.485 28.67 19.485 47.040 0 36.741-29.784 66.525-66.525 66.525-18.37 0-35.001-7.446-47.040-19.485v0z" />
<glyph unicode="&#xe910;" glyph-name="17" d="M911.22-60.067h-798.441c-0.007 0-0.015 0-0.023 0-60.127 0-108.87 48.743-108.87 108.87v0 689.571c0 60.127 48.743 108.87 108.87 108.87 0.008 0 0.016 0 0.024 0h108.869v72.588c0 20.045 16.249 36.294 36.294 36.294s36.294-16.249 36.294-36.294v0-72.588h435.526v72.588c0 20.045 16.249 36.294 36.294 36.294s36.294-16.249 36.294-36.294v-72.588h108.87c0.007 0 0.015 0 0.023 0 60.114 0 108.847-48.732 108.847-108.847 0-0.008 0-0.016 0-0.024v0.001-689.571c0-0.007 0-0.015 0-0.023 0-60.114-48.732-108.847-108.847-108.847-0.008 0-0.016 0-0.024 0h0.001zM947.526 738.374c0 20.051-16.255 36.305-36.305 36.305v0h-108.87v-72.611c-0.513-19.652-16.566-35.386-36.294-35.386s-35.78 15.735-36.293 35.339l-0.001 0.047v72.611h-435.526v-72.611c0-20.045-16.249-36.294-36.294-36.294s-36.294 16.249-36.294 36.294v0 72.611h-108.87c-20.051 0-36.305-16.255-36.305-36.305v0-145.175h871.052v145.175zM947.526 520.611h-871.052v-471.808c0.013-20.041 16.263-36.282 36.305-36.282h798.441c20.043 0 36.292 16.241 36.305 36.281v471.809zM465.059 95.721c-6.569-6.562-15.64-10.62-25.658-10.62s-19.090 4.058-25.659 10.62v0l-145.152 145.199c-6.306 6.515-10.193 15.406-10.193 25.204s3.887 18.689 10.202 25.214l-0.010-0.010c6.614 6.832 15.868 11.072 26.113 11.072 9.793 0 18.681-3.875 25.214-10.175l119.494-119.518 264.681 264.681c6.475 6.077 15.212 9.81 24.821 9.81 20.051 0 36.305-16.255 36.305-36.305 0-9.609-3.733-18.346-9.828-24.841l0.018 0.019-290.351-290.351z" />
<glyph unicode="&#xe911;" glyph-name="18" horiz-adv-x="1161" d="M1052.672 85.117h-35.476v-99.692c-0.082-18.336-14.966-33.169-33.314-33.169-9.152 0-17.442 3.691-23.463 9.665l-123.288 123.197h-185.799c-55.063 0.013-99.705 44.615-99.783 99.662v33.207h-154.738l-189.827-189.599c-6.019-6.010-14.329-9.726-23.507-9.726-18.361 0-33.248 14.874-33.269 33.231v166.095h-33.269c-55.053 0.039-99.68 44.625-99.783 99.659v531.58c0.091 55.054 44.722 99.653 99.779 99.692h800.476c55.061-0.039 99.692-44.638 99.783-99.683v-299.017h35.476c55.058-0.026 99.692-44.62 99.783-99.66v-265.771c-0.078-55.055-44.72-99.656-99.782-99.669h-0.001zM950.682 849.226c0 18.341-14.928 33.246-33.269 33.246h-800.472c-18.341 0-33.269-14.905-33.269-33.246v-531.57c0-18.318 14.928-33.223 33.269-33.223h66.537c0.007 0 0.015 0 0.023 0 18.349 0 33.223-14.874 33.223-33.223 0 0 0 0 0 0v0-119.125l142.791 142.632c6.011 6.004 14.311 9.717 23.478 9.717 0.010 0 0.020 0 0.030 0h168.526v166.116c0.091 55.049 44.725 99.643 99.781 99.669h299.352v299.008zM1085.941 450.549c0 18.318-14.928 33.246-33.269 33.246h-401.34c-18.341 0-33.269-14.928-33.269-33.246v-265.762c0-18.341 14.928-33.246 33.269-33.246h199.566c8.829 0 17.271-3.504 23.506-9.717l76.277-76.186v52.679c0 18.364 14.882 33.223 33.269 33.223h68.722c18.341 0 33.269 14.905 33.269 33.246v265.762zM841.159 227.749c-6.010-6.039-14.327-9.775-23.518-9.775s-17.508 3.737-23.517 9.774l-0.001 0.001-49.903 49.812c-6.009 6.015-9.725 14.321-9.725 23.495 0 18.36 14.883 33.243 33.243 33.243 9.186 0 17.501-3.725 23.518-9.748v0l26.374-26.328 76.277 76.163c6.022 6.011 14.336 9.728 23.518 9.728s17.496-3.717 23.518-9.729l-0.001 0.001c12.993-12.971 12.993-34.020 0-46.99l-99.783-99.647zM216.724 716.334c0 18.364 14.882 33.223 33.269 33.223h534.391c18.349 0 33.223-14.874 33.223-33.223s-14.874-33.223-33.223-33.223v0h-534.391c-0.014 0-0.030 0-0.046 0-18.349 0-33.223 14.874-33.223 33.223v0zM249.993 616.664h268.288c18.349 0 33.223-14.874 33.223-33.223s-14.874-33.223-33.223-33.223v0h-268.288c-0.367-0.014-0.797-0.023-1.23-0.023-18.361 0-33.246 14.885-33.246 33.246s14.885 33.246 33.246 33.246c0.433 0 0.863-0.008 1.292-0.025l-0.062 0.002zM249.993 483.794h201.774c0.259 0.007 0.564 0.011 0.87 0.011 18.361 0 33.246-14.885 33.246-33.246s-14.885-33.246-33.246-33.246c-0.306 0-0.611 0.004-0.915 0.012l0.045-0.001h-201.774c-18.355 0-33.234 14.88-33.234 33.234s14.88 33.234 33.234 33.234v0z" />
<glyph unicode="&#xe912;" glyph-name="19" horiz-adv-x="1619" d="M1577.984 892.202c-262.287 0-407.814-67.108-413.887-69.894-8.601-4.092-15.058-11.513-17.776-20.554l-0.061-0.236c-2.334-8.025-1.596-16.527 1.977-24.028-89.204 33.283-152.337 59.736-214.55 87.863l23.229-9.396c-120.522 53.843-198.251 37.388-284.386-30.529h-267.288c1.429 10.645 2.596 20.885 3.429 30.529 0.086 0.896 0.135 1.936 0.135 2.988 0 9.497-4 18.060-10.406 24.096l-0.017 0.016c-57.249 54.248-286.196 71.799-355.018 75.871-0.632 0.043-1.37 0.067-2.114 0.067-8.843 0-16.88-3.453-22.835-9.084l0.016 0.015c-6.668-6.287-10.478-15.098-10.478-24.314v-601.064c0-18.432 14.955-33.387 33.411-33.387h200.418c14.431 0 27.267 9.287 31.744 23.052 0.667 2.072 3.477 10.669 7.835 24.362 7.597-7.835 15.979-16.622 24.695-25.695 29.791-31.149 60.607-63.321 81.301-80.682 124.404-104.115 273.932-216.516 303.723-236.068 24.6-16.17 77.562-38.888 118.593-38.888 32.935 0 58.249 7.549 75.824 22.314 23.528-9.145 50.247-9.216 75.967 0.81 30.41 11.74 55.391 35.459 69.561 64.179 26.314-5.644 56.439-1.691 83.825 12.074 26.791 13.503 46.175 34.149 55.796 58.249 26.6-1.405 53.986 8.025 76.633 27.434 30.529 26.124 43.437 63.798 36.221 101.305l52.891 35.507c3.715-12.002 6.763-22.242 8.954-30.22 4.025-14.503 17.17-24.528 32.22-24.528h200.418c18.432 0 33.411 14.955 33.411 33.411v601.040c0 18.503-14.979 33.387-33.411 33.387zM74.752 357.936v531.885c107.377-8.478 223.232-26.91 265.311-47.366-17.694-146.241-97.804-406.099-122.666-484.519h-142.646zM1203.843 193.119c-12.669-10.883-29.815-14.622-39.888-8.859-24.838 19.932-130.786 128.333-196.465 196.799-6.086 6.361-14.642 10.315-24.122 10.315-8.983 0-17.137-3.55-23.135-9.325l0.011 0.010c-6.359-6.082-10.313-14.634-10.313-24.11 0-8.979 3.55-17.129 9.322-23.124l-0.010 0.010c15.503-16.17 140.383-146.265 190.464-191.869-3.858-14.527-17.956-23.171-24.767-26.553-21.29-10.788-43.484-9.002-51.914-1.334-0.618 0.596-1.27 1.18-1.942 1.739l-0.058 0.047c-40.031 32.006-140.574 138.764-163.292 163.483-6.141 6.642-14.9 10.787-24.628 10.787-8.73 0-16.681-3.339-22.644-8.809l0.025 0.022c-6.647-6.134-10.795-14.89-10.795-24.614 0-8.728 3.342-16.676 8.817-22.633l-0.022 0.024c1.095-1.143 99.114-106.925 154.6-156.601-6.682-16.334-19.368-29.058-35.245-35.635l-0.429-0.157c-10.216-3.882-25.052-6.215-38.34 5.93l-1 0.929c-47.652 40.174-145.122 143.86-164.173 164.245-6.114 6.529-14.786 10.597-24.409 10.597-18.452 0-33.411-14.959-33.411-33.411 0-8.829 3.425-16.859 9.019-22.832l-0.017 0.019c22.599-24.171 89.993-95.637 140.55-143.241-4.287-0.595-9.478-0.953-15.955-0.953-22.242 0-62.273 15.050-81.849 28.005-23.433 15.408-170.484 125.071-297.508 231.4-17.837 15.003-48.7 47.199-75.943 75.657-19.932 20.813-38.436 39.96-50.676 51.486 27.91 92.089 68.227 233.186 90.445 348.089h204.895c-45.651-45.889-107.115-137.788-91.136-205.3 6.882-28.839 27.172-50.224 57.368-60.178 75.705-24.957 144.789-1.048 196.227 67.203 21.242 3.263 32.816 8.073 50.176 15.884 6.287 2.81 13.622 6.073 23.385 10.026 38.221-35.864 89.802-77.61 144.098-121.475 98.233-79.396 209.587-169.436 234.639-221.517 12.359-25.719-0.929-42.484-9.954-50.176zM1253.948 304.211c-46.080 61.535-140.764 138.097-232.758 212.468-60.654 49.057-117.974 95.399-154.529 131.905-6.036 6.051-14.383 9.795-23.605 9.795-4.065 0-7.959-0.727-11.561-2.059l0.231 0.075c-22.528-8.144-36.412-14.431-47.366-19.289-16.717-7.501-22.314-10.026-44.842-12.288-10.228-1.032-18.987-6.549-24.382-14.528l-0.075-0.118c-47.223-70.561-96.137-64.583-128.81-53.629-10.407 3.501-12.288 7.954-13.288 12.24-7.025 29.315 28.196 97.566 73.823 143.193 108.568 108.568 164.554 135.763 282.815 82.944 111.926-50.033 224.018-91.017 258.881-103.472 39.198-95.28 92.184-243.426 126.5-346.255l-61.035-40.984zM1544.573 291.161h-142.026c-31.673 103.114-125.214 371.998-177.39 483.114 50.986 17.289 160.482 47.009 319.417 50.771v-533.885z" />
<glyph unicode="&#xe913;" glyph-name="20" horiz-adv-x="1084" d="M543.985 943.857l131.433-306.598 335.872-28.311c23.251-2.108 32.828-30.961 14.938-45.96l-254.615-218.112 76.258-324.186c5.421-22.468-19.396-40.297-39.334-28.25l-288.828 171.912-288.828-171.912c-19.938-11.806-44.755 5.783-39.334 28.25l76.258 324.186-254.916 218.112c-5.52 4.839-8.987 11.905-8.987 19.781 0 13.767 10.592 25.059 24.072 26.172l0.095 0.006 335.932 28.311 131.373 306.598c4.11 9.553 13.44 16.12 24.305 16.12s20.195-6.567 24.239-15.948l0.066-0.171z" />
<glyph unicode="&#xe914;" glyph-name="21" d="M470.059 920.491c237.397 0 430.507-193.152 430.507-430.507 0-102.699-36.181-197.077-96.384-271.147l180.224-180.224-62.976-62.933-180.224 180.181c-73.142-60.009-167.673-96.384-270.7-96.384-0.157 0-0.314 0-0.471 0h0.024c-237.355 0-430.464 193.109-430.464 430.507 0 237.355 193.109 430.507 430.464 430.507zM470.059 148.523c188.288 0 341.419 153.216 341.419 341.461s-153.131 341.376-341.419 341.376c-188.245 0-341.419-153.131-341.419-341.376s153.173-341.461 341.419-341.461z" />
<glyph unicode="&#xe915;" glyph-name="22" d="M897.959 720.963c-64.69 0-117.226 52.001-117.226 116.024 0 63.933 52.536 116.068 117.226 116.068 64.646 0 117.137-52.135 117.137-116.068 0-64.022-52.491-116.024-117.137-116.024zM894.931 581.12c64.601 0 117.137-52.001 117.137-116.024 0-63.978-52.536-116.113-117.137-116.113-64.69 0-117.226 52.135-117.226 116.113 0 64.022 52.625 116.024 117.226 116.024zM512.49 720.963c-64.601 0-117.226 52.001-117.226 116.024 0 63.933 52.625 116.068 117.226 116.068 64.646 0 117.226-52.135 117.226-116.068 0-64.022-52.58-116.024-117.226-116.024zM509.462 581.12c64.601 0 117.226-52.001 117.226-116.024 0-63.978-52.625-116.113-117.226-116.113-64.646 0-117.226 52.135-117.226 116.113 0 64.022 52.58 116.024 117.226 116.024zM133.209 720.963c-64.601 0-117.226 52.001-117.226 116.024 0 63.933 52.625 116.068 117.226 116.068 64.646 0 117.137-52.135 117.137-116.068 0-64.022-52.491-116.024-117.137-116.024zM130.182 581.12c64.601 0 117.092-52.001 117.092-116.024 0-63.978-52.491-116.113-117.092-116.113s-117.226 52.135-117.226 116.113c0 64.022 52.625 116.024 117.226 116.024zM132.808 210.432c64.601 0 117.226-52.090 117.226-116.113 0-63.978-52.625-116.113-117.226-116.113-64.646 0-117.137 52.135-117.137 116.113 0 64.022 52.491 116.113 117.137 116.113zM512.178 210.432c64.601 0 117.137-52.090 117.137-116.113 0-63.978-52.536-116.113-117.137-116.113-64.735 0-117.27 52.135-117.27 116.113 0 64.022 52.669 116.113 117.27 116.113zM897.558 210.432c64.601 0 117.226-52.090 117.226-116.113 0-63.978-52.625-116.113-117.226-116.113-64.646 0-117.226 52.135-117.226 116.113 0 64.022 52.58 116.113 117.226 116.113z" />
<glyph unicode="&#xe916;" glyph-name="23" d="M512-63.98c-281.375 0-512 230.625-512 512s230.625 512 512 512c281.242-0.307 511.693-230.748 512-512 0-281.375-230.625-512-512-512zM512 919.685c-259.205 0-471.665-212.46-471.665-471.665s212.46-471.665 471.665-471.665 471.665 212.46 471.665 471.665c-0.276 259.092-212.572 471.378-471.665 471.665zM612.27 427.919v-0.102l-139.602-90.286c-19.436-9.339-32.348 0.358-32.348 18.319v184.33c0 20.797 21.084 25.057 32.348 18.442l139.602-90.286c23.716-16.364 8.356-35.85 0-40.417z" />
<glyph unicode="&#xe917;" glyph-name="24" horiz-adv-x="896" d="M842.176 356.544l-684.928-406.464c-87.552-42.048-157.248 33.088-157.248 113.984v768c0 93.632 106.56 143.168 157.248 113.408l684.928-406.464c98.112-61.952 37.568-161.408 0-181.952v-0.512z" />
<glyph unicode="&#xe918;" glyph-name="25" horiz-adv-x="791" d="M425.193 882.641v30.045c0 15.97-12.946 28.916-28.916 28.916s-28.916-12.946-28.916-28.916v0-29.975c-200.89-14.499-359.889-182.598-359.889-387.119 0-15.965 12.94-28.928 28.905-28.928h330.333v-101.492l-218.461-145.641c-7.812-5.259-12.882-14.070-12.882-24.064 0-15.97 12.947-28.917 28.917-28.917 5.976 0 11.529 1.813 16.138 4.918l-0.103-0.065 12.87 8.588v-196.608c0-15.988 12.963-28.928 28.928-28.928h347.043c15.965 0 28.928 12.94 28.928 28.928v196.608l12.87-8.588c4.509-3.044 10.066-4.859 16.047-4.859 15.974 0 28.923 12.949 28.923 28.923 0 9.993-5.068 18.803-12.774 23.999l-0.103 0.065-218.484 145.641v101.492h330.31c15.988 0 28.928 12.963 28.928 28.928 0 204.102-158.324 371.898-358.609 387.049zM424.564 12.311h-57.856v57.833h57.856v-57.833zM540.23 12.311h-57.833v86.737c0 15.988-12.94 28.951-28.928 28.951h-115.665c-15.988 0-28.928-12.963-28.928-28.951v-86.737h-57.833v206.243l144.593 96.396 144.593-96.396v-206.243zM482.374 737.839c25.577-57.437 40.89-132.329 43.823-213.318h-261.143c2.956 80.989 18.246 155.881 43.846 213.318 24.925 55.971 56.529 88.087 86.737 88.087 30.185 0 61.812-32.116 86.737-88.087zM278.97 804.631c-48.873-77.475-68.655-188.369-71.773-280.111h-140.637c11.194 128.489 96.279 236.148 212.41 280.111zM584.076 524.521c-3.142 91.695-22.9 202.682-71.796 280.111 116.154-43.962 201.239-151.622 212.433-280.111h-140.637z" />
<glyph unicode="&#xe919;" glyph-name="26" d="M1004.954 213.606l-159.949-203.571c-34.634-44.055-87.928-72.090-147.77-72.090-0.195 0-0.391 0-0.586 0.001h-300.028c-2.893 0-5.786 0.41-8.55 1.254l-162.97 48.896c-8.701-29.179-35.27-50.098-66.733-50.15h-123.116c-16.461 0-29.773 13.312-29.773 29.798v337.536c0 16.435 13.312 29.773 29.773 29.773h123.11c27.981 0 52.147-16.64 63.155-40.525l14.541 8.704c32.798 19.977 72.464 31.803 114.893 31.803 36.401 0 70.769-8.705 101.136-24.146l-1.27 0.586 71.962-35.994h131.968c49.355-0.040 89.351-40.060 89.351-89.421 0-2.74-0.123-5.451-0.364-8.128l0.025 0.345 141.517 141.517c14.338 14.63 34.302 23.699 56.384 23.699 11.177 0 21.812-2.323 31.447-6.514l-0.51 0.197c29.257-11.989 49.489-40.247 49.489-73.23 0-0.292-0.002-0.584-0.005-0.875v0.044c0-17.869-6.093-35.456-17.126-49.51zM168.294 265.574c-0.029 5.469-4.462 9.893-9.931 9.907h-93.339v-59.546h103.27v49.638zM168.294 156.365h-103.27v-158.848h93.338c5.48 0.015 9.918 4.453 9.933 9.931v148.916zM949.811 282.138c-2.365 1.070-5.127 1.693-8.035 1.693-5.654 0-10.758-2.356-14.383-6.14l-172.167-172.167c-5.386-5.387-12.824-8.721-21.042-8.73h-258.126c-0.26-0.008-0.566-0.013-0.873-0.013-16.457 0-29.798 13.341-29.798 29.798s13.341 29.798 29.798 29.798c0.307 0 0.613-0.005 0.918-0.014l-0.045 0.001h178.688c16.435 0 29.798 13.363 29.798 29.773s-13.363 29.798-29.798 29.798h-138.982c-4.634 0-9.19 1.050-13.312 3.123l-78.285 39.168c-21.325 10.891-46.514 17.273-73.194 17.273-31.114 0-60.2-8.68-84.971-23.75l0.724 0.409-38.886-23.296v-179.405l173.158-51.942h295.68c0.112 0 0.244-0.001 0.377-0.001 40.939 0 77.4 19.174 100.893 49.031l0.209 0.275 159.949 203.597c2.738 3.46 4.395 7.884 4.403 12.696v0.002c0.004 0.141 0.006 0.307 0.006 0.474 0 8.4-5.207 15.584-12.569 18.5l-0.135 0.047zM791.757 523.546v-55.45c-0.044-38.368-31.136-69.46-69.5-69.504h-39.71c-38.368 0.044-69.46 31.136-69.504 69.5v49.642h-198.554v-49.638c-0.044-38.359-31.121-69.446-69.473-69.504h-39.737c-38.357 0.058-69.435 31.145-69.478 69.5v55.454c-29.335 12.116-49.608 40.487-49.638 73.596v89.348c0 35.84 23.859 66.227 56.525 76.058l36.531 115.686c14.248 44.591 55.319 76.314 103.799 76.314 0.111 0 0.222 0 0.333 0h260.847c0.090 0 0.197 0 0.304 0 48.49 0 89.571-31.721 103.624-75.544l0.213-0.77 36.531-115.686c32.955-10.19 56.488-40.371 56.525-76.053v-89.348c0-33.28-20.582-61.798-49.638-73.6zM672.614 468.096c0-5.478 4.454-9.933 9.933-9.933h39.706c5.486 0 9.933 4.447 9.933 9.933v49.638h-59.571v-49.638zM295.373 468.096c0-5.478 4.454-9.933 9.907-9.933h39.731c5.475 0.015 9.907 4.456 9.907 9.933 0 0 0 0 0 0v0 49.638h-59.546v-49.638zM691.533 860.288c-6.468 20.267-25.132 34.688-47.164 34.688-0.060 0-0.119 0-0.179 0h-260.855c-0.043 0-0.094 0-0.144 0-22.032 0-40.696-14.421-47.068-34.338l-0.097-0.35-29.798-94.362h415.104l-29.798 94.362zM781.824 686.49c0 10.971-8.894 19.866-19.866 19.866v0h-496.384c-10.957 0-19.84-8.883-19.84-19.84 0-0.009 0-0.018 0-0.027v0.001-89.344c0-10.931 8.883-19.84 19.84-19.84h496.384c10.957 0.015 19.837 8.885 19.866 19.837v89.347z" />
<glyph unicode="&#xe91a;" glyph-name="27" d="M986.512-44.669h-938.009c-0.007 0-0.016 0-0.025 0-16.111 0-29.172 13.061-29.172 29.172v0 97.33c0 80.446 46.754 150.178 114.513 183.496-22.658 22.778-36.664 54.181-36.664 88.855 0 0.029 0 0.058 0 0.087v-0.005c0.071 69.828 56.651 126.416 126.468 126.501h0.008c69.836-0.071 126.43-56.665 126.501-126.495v-0.007c0-0.017 0-0.037 0-0.057 0-34.628-13.955-65.997-36.548-88.79l0.009 0.009c46.874-23.284 82.829-62.659 101.132-110.739l0.468-1.401c6.718 5.32 13.861 10.090 21.354 14.311-16.199 18.586-26.075 43.051-26.075 69.822 0 0.030 0 0.060 0 0.089v-0.005c0.057 59.088 47.935 106.974 107.014 107.045h0.007c59.097-0.057 106.989-47.949 107.045-107.040v-0.005c0-0.011 0-0.025 0-0.038 0-26.786-9.875-51.266-26.184-69.997l0.11 0.129c7.493-4.221 14.636-8.991 21.329-14.311 18.782 49.483 54.745 88.858 100.441 111.607l1.185 0.534c-22.599 22.786-36.564 54.165-36.564 88.806 0 0.011 0 0.023 0 0.034v-0.002c0.085 69.831 56.671 126.416 126.493 126.501h0.008c69.836-0.071 126.43-56.665 126.501-126.495v-0.007c0-0.025 0-0.054 0-0.083 0-34.675-14.006-66.078-36.67-88.861l0.005 0.005c67.759-33.317 114.513-103.049 114.513-183.496v-97.33c0-16.109-13.087-29.172-29.196-29.172zM223.632 422.4c-37.601-0.057-68.066-30.53-68.108-68.129v-0.004c0.057-37.587 30.519-68.041 68.104-68.084h0.004c37.6 0.028 68.077 30.487 68.133 68.078v0.005c-0.043 37.612-30.522 68.091-68.129 68.133h-0.004zM223.632 227.79c-80.57-0.099-145.858-65.387-145.957-145.948v-68.143h274.407v9.74c0 0.054 0 0.119 0 0.184 0 26.362 6.216 51.271 17.263 73.343l-0.43-0.948c-7.321 74.245-69.44 131.772-144.994 131.772-0.102 0-0.203 0-0.305 0h0.016zM517.495 286.183c-26.862-0.043-48.624-21.814-48.652-48.675v-0.003c0.028-26.859 21.794-48.624 48.65-48.652h0.003c26.063 1.055 46.793 22.439 46.793 48.665s-20.729 47.61-46.697 48.662l-0.095 0.003zM624.54 23.44c-0.071 59.091-47.954 106.974-107.039 107.045h-0.007c-59.086-0.071-106.964-47.958-107.020-107.040v-9.745h214.066v9.74zM811.358 422.4c-37.607-0.043-68.080-30.525-68.108-68.131v-0.003c0.057-37.587 30.519-68.041 68.104-68.084h0.004c37.589 0.043 68.052 30.496 68.108 68.078v0.005c-0.028 37.609-30.502 68.091-68.104 68.133h-0.004zM957.315 81.833c-0.099 80.57-65.387 145.858-145.948 145.957h-0.010c-0.085 0-0.186 0-0.287 0-75.55 0-137.663-57.529-144.924-131.17l-0.048-0.602c10.602-21.111 16.809-46.003 16.809-72.345 0-0.082 0-0.165 0-0.247v0.013-9.74h274.407v68.133zM525.886 388.583c-2.511-0.786-5.399-1.239-8.392-1.239s-5.881 0.453-8.598 1.293l0.206-0.055c-63.944 19.442-117.294 57.722-155.084 108.304l-0.564 0.789c-37.302 49.469-59.743 111.972-59.743 179.717 0 0.258 0 0.515 0.001 0.772v-0.040 166.562c0 16.134 13.062 29.196 29.172 29.196 0.092 0 0.2 0 0.309 0 37.582 0 70.136 21.527 86.004 52.922l0.252 0.551 4.096 8.217c4.908 9.643 14.758 16.133 26.124 16.134h155.673c11.064 0 21.154-6.244 26.1-16.134l4.121-8.217c16.107-31.945 48.652-53.473 86.226-53.473 0.111 0 0.221 0 0.332 0.001h-0.017c16.134 0 29.196-13.062 29.196-29.196v-166.562c0-65.511-20.655-127.9-59.767-180.449-38.344-51.382-91.698-89.665-153.521-108.535l-2.127-0.558zM682.908 818.213c-45.391 8.778-83 36.478-104.926 74.385l-0.396 0.742h-120.158c-22.327-38.654-59.946-66.356-104.377-74.97l-0.97-0.157v-140.088c0-105.622 66.11-197.332 165.413-230.949 99.328 33.617 165.413 125.328 165.413 230.949v140.088zM489.972 585.291c-7.468 0-14.935 2.872-20.63 8.567l-55.046 55.046c-4.751 5.179-7.662 12.112-7.662 19.725 0 16.139 13.083 29.221 29.221 29.221 7.613 0 14.546-2.911 19.747-7.682l-0.022 0.019 34.391-34.391 89.438 89.438c5.179 4.751 12.112 7.662 19.725 7.662 16.139 0 29.221-13.083 29.221-29.221 0-7.613-2.911-14.546-7.682-19.747l0.019 0.022-110.068-110.092c-5.274-5.292-12.569-8.567-20.629-8.567-0.009 0-0.018 0-0.027 0h0.001z" />
<glyph unicode="&#xe91b;" glyph-name="28" horiz-adv-x="1129" d="M1057.241 242.334l-254.005-273.040c-5.808-5.767-13.809-9.331-22.643-9.331-17.749 0-32.138 14.389-32.138 32.138 0 8.017 2.936 15.348 7.79 20.978l-0.035-0.042 254.005 273.040c23.998 25.81 37.232 60.075 37.232 96.545v309.169c0 23.394-17.145 42.404-38.229 42.404s-38.229-19.010-38.229-42.404v-188.311c25.259-41.406 20.244-96.23-13.496-131.991l-155.333-164.549c-5.852-6.248-14.153-10.142-23.363-10.142-8.547 0-16.311 3.353-22.048 8.815l0.013-0.012c-6.215 5.865-10.084 14.157-10.084 23.354 0 8.544 3.34 16.308 8.785 22.058l-0.014-0.015 155.333 164.575c14.73 15.623 15.911 41.275 2.704 58.394l-0.026 0.026c-0.918 1.169-1.795 2.195-2.71 3.185l0.032-0.035c-6.604 7.199-16.024 11.723-26.502 11.815h-0.017c-9.899 0-19.325-4.201-26.493-11.815l-208.896-221.315c-32.112-34.028-50.754-78.717-53.064-126.687 0.105-2.941 0-137.899 0-137.899 0-17.749-14.336-32.138-32.085-32.19h-0.053c-17.714 0.030-32.067 14.374-32.112 32.081v0.004s-0.131 134.932 0 137.899c-2.311 47.997-20.953 92.764-53.090 126.792l-208.87 221.315c-6.594 7.198-16.006 11.722-26.476 11.815h-0.017c-11.948-0.191-22.5-6-29.154-14.895l-0.069-0.097c-13.233-17.119-12.025-42.772 2.704-58.394l155.333-164.575c5.687-5.789 9.197-13.733 9.197-22.496 0-17.735-14.377-32.112-32.112-32.112-9.423 0-17.898 4.059-23.772 10.523l-0.024 0.026-155.333 164.549c-33.739 35.761-38.754 90.585-13.496 131.991v188.337c0 23.368-17.145 42.404-38.229 42.404s-38.229-19.036-38.229-42.404v-309.195c0-36.47 13.207-70.735 37.232-96.545l254.005-273.040c5.329-5.717 8.6-13.412 8.6-21.872 0-17.735-14.377-32.112-32.112-32.112-9.276 0-17.633 3.933-23.495 10.222l-0.018 0.019-254.005 273.040c-35.105 37.704-54.43 87.539-54.43 140.288v309.195c0 58.788 45.975 106.601 102.453 106.601s102.453-47.813 102.453-106.601v-141.181c6.741 1.622 14.481 2.552 22.438 2.552 28.918 0 54.966-12.286 73.209-31.923l0.057-0.062 208.87-221.289c14.596-15.427 27.37-32.821 37.827-51.678l0.665-1.307c11.141 20.161 23.923 37.554 38.631 53.106l-0.113-0.12 208.87 221.289c18.297 19.701 44.342 31.988 73.258 31.988 7.96 0 15.703-0.931 23.125-2.691l-0.678 0.136v141.154c0 58.788 45.949 106.627 102.453 106.627 56.478 0 102.453-47.813 102.453-106.601v-309.195c0-52.749-19.351-102.584-54.43-140.288zM585.807 398.060c-5.737-5.493-13.534-8.874-22.12-8.874-8.6 0-16.408 3.392-22.159 8.911l0.011-0.011-219.346 208.843c-39.936 37.52-61.991 92.344-59.733 148.165 3.781 105.262 82.603 189.991 179.436 192.958 44.951 1.392 87.775-14.704 121.777-44.846 34.002 30.142 76.826 46.159 121.751 44.846 97.096-2.941 175.944-87.906 179.489-193.457 2.153-55.795-19.929-110.539-59.917-148.112l-219.189-208.423zM683.507 883.83c-36.181 1.103-70.525-16.095-94.339-47.13-5.922-7.685-15.13-12.588-25.482-12.588s-19.56 4.903-25.426 12.513l-0.055 0.075c-23.106 30.116-56.136 47.183-91.083 47.183-1.103 0-2.179 0-3.256-0.053-63.173-1.89-114.662-59.471-117.209-131.072-1.602-37.415 13.049-74.174 39.7-99.223l197.343-187.891 197.133 187.497c26.755 25.075 41.406 61.86 39.883 99.328-2.389 71.733-53.904 129.47-117.209 131.361zM613.323 649.387h-17.539v-17.513c0-17.735-14.377-32.112-32.112-32.112s-32.112 14.377-32.112 32.112v0 17.513h-17.539c-17.181 0.717-30.839 14.819-30.839 32.112s13.658 31.395 30.774 32.109l0.065 0.002h17.539v17.566c0.717 17.181 14.819 30.839 32.112 30.839s31.395-13.658 32.109-30.774l0.002-0.065v-17.566h17.539c17.735 0 32.112-14.377 32.112-32.112s-14.377-32.112-32.112-32.112v0z" />
<glyph unicode="&#xe91c;" glyph-name="29" horiz-adv-x="1638" d="M1543.27 755.2l-724.070-724.070-724.070 724.070 144.794 144.794 579.277-579.277 579.277 579.277 144.794-144.794z" />
<glyph unicode="&#xe91d;" glyph-name="30" horiz-adv-x="1638" d="M1543.27 140.8l-144.794-144.794-579.277 579.277-579.277-579.277-144.794 144.794 724.070 724.070 724.070-724.070z" />
<glyph unicode="&#xe91e;" glyph-name="31" horiz-adv-x="10240" d="M9728-59.904h-9216c-291.84 0-512.512 207.36-512.512 494.080s220.672 528.896 512.512 528.896h9216s512-2.048 512-514.048c0-512.512-512-508.928-512-508.928z" />
<glyph unicode="&#xe91f;" glyph-name="32" horiz-adv-x="1536" d="M1417.088 704l-649.088-649.088-649.088 649.088 180.992 180.992 468.096-467.968 468.096 467.968 180.992-180.992z" />
<glyph unicode="&#xe920;" glyph-name="33" d="M979.857 39.891c-14.586-11.053-33.037-17.705-53.043-17.705-28.709 0-54.218 13.699-70.347 34.917l-0.159 0.218-275.367 365.724c-20.925-8.827-45.427-16.062-70.881-20.532l-2.091-0.304c0.39-3.117 0.613-6.724 0.613-10.383 0-48.722-39.497-88.22-88.22-88.22-28.686 0-54.175 13.692-70.287 34.897l-0.159 0.218-141.535 187.971c-11.13 14.605-17.832 33.107-17.832 53.174 0 48.71 39.487 88.198 88.198 88.198 12.422 0 24.245-2.568 34.965-7.203l-0.572 0.22c48.793 99.788 141.384 171.651 252.034 190.988l2.074 0.3c-0.396 3.141-0.623 6.776-0.623 10.463 0 28.692 13.697 54.184 34.909 70.296l0.218 0.159c14.586 11.047 33.036 17.696 53.038 17.696 28.708 0 54.217-13.695 70.351-34.909l0.159-0.217 141.535-187.949c11.043-14.589 17.689-33.040 17.689-53.044 0-28.712-13.692-54.225-34.902-70.368l-0.217-0.158c-14.589-11.067-33.050-17.729-53.067-17.729-12.363 0-24.132 2.541-34.814 7.129l0.574-0.219c-11.929-24.52-25.311-45.629-40.729-65.049l0.548 0.715 275.345-365.724c11.053-14.591 17.706-33.048 17.706-53.059 0-28.706-13.69-54.214-34.897-70.353l-0.217-0.158zM673.325 398.136l46.993 35.373-39.268 52.157c-13.961-12.527-29.311-24.183-45.576-34.53l-1.417-0.843 39.268-52.157zM302.369 597.437c-5.424 7.151-13.926 11.723-23.496 11.723-16.242 0-29.409-13.167-29.409-29.409 0-6.672 2.222-12.825 5.966-17.759l-0.053 0.073 141.535-187.971c5.438-6.659 13.649-10.876 22.844-10.876 16.253 0 29.429 13.176 29.429 29.429 0 6.295-1.976 12.128-5.343 16.913l0.062-0.094v0.022l-141.535 187.949zM594.098 796.761c-106.67-12.005-194.8-80.775-234.258-174.986l-0.705-1.898 121.99-162.059c106.65 12.073 194.754 80.827 234.257 175.008l0.707 1.899-121.99 162.037zM772.853 657.141c5.424-7.151 13.926-11.723 23.496-11.723 16.242 0 29.409 13.167 29.409 29.409 0 6.672-2.222 12.825-5.966 17.759l0.053-0.073-141.512 187.971c-5.424 7.151-13.926 11.723-23.496 11.723-16.242 0-29.409-13.167-29.409-29.409 0-6.672 2.222-12.825 5.966-17.759l-0.053 0.073 141.512-187.971zM950.272 128.067l-194.582 258.449-46.993-35.373 194.582-258.471c5.44-6.496 13.554-10.598 22.626-10.598 16.265 0 29.451 13.186 29.451 29.451 0 6.176-1.901 11.907-5.149 16.642l0.065-0.1zM544.456 160.723v-38.266c34.527-12.514 58.761-45.004 58.813-83.16v-62.737c0-0.007 0-0.014 0-0.022 0-16.229-13.156-29.384-29.384-29.384-0.008 0-0.016 0-0.023 0h-533.325c-0.007 0-0.014 0-0.022 0-16.229 0-29.384 13.156-29.384 29.384 0 0.008 0 0.016 0 0.023v-0.001 62.731c0.053 38.163 24.286 70.652 58.198 82.971l0.615 0.195v38.266c0.051 46.617 37.821 84.394 84.429 84.458h305.625c46.624-0.051 84.407-37.833 84.458-84.453v-0.005zM69.944 39.29v-33.325h474.513v33.325c0 16.206-13.201 29.407-29.429 29.407h-415.677c-16.206 0-29.407-13.201-29.407-29.407zM128.779 160.723v-33.191h356.842v33.191c0 14.136-11.487 25.622-25.622 25.622h-305.619c-14.113 0-25.6-11.487-25.6-25.622z" />
<glyph unicode="&#xe921;" glyph-name="34" d="M953.633 720.607v59.37h-363.208c-9.239 25.369-28.881 45.011-53.627 54.051l-0.622 0.199v125.774h-59.37v-125.774c-25.369-9.239-45.011-28.881-54.051-53.627l-0.199-0.622h-363.208v-59.37h74.195l-133.543-320.512v-5.944c0.101-81.909 66.481-148.28 148.383-148.369h59.356c81.911 0.089 148.29 66.46 148.391 148.359v5.954l-133.543 320.512h199.969c9.239-25.369 28.881-45.011 53.627-54.051l0.622-0.199v-425.561c-59.111-12.509-104.702-58.802-116.007-117.315l-0.15-0.935c-68.897-12.778-121.255-73.305-121.255-145.853v-29.674h534.194v29.674c0 72.548-52.358 133.075-121.233 145.853-11.458 59.453-57.059 105.749-115.207 118.077l-0.972 0.173v425.561c25.369 9.239 45.011 28.881 54.051 53.627l0.199 0.622h199.992l-133.565-320.512v-5.944c0.114-81.904 66.485-148.267 148.381-148.369h59.357c81.911 0.089 148.29 66.46 148.391 148.359v5.954l-133.543 320.512h74.195zM178.065 673.124l103.869-249.299h-207.738l103.869 249.299zM207.738 305.13h-59.347c-38.524 0.046-71.322 24.512-83.749 58.749l-0.197 0.621h227.217c-12.61-34.858-45.404-59.328-83.918-59.37h-0.005zM834.916 673.124l103.869-249.299h-207.738l103.869 249.299zM864.59 305.13h-59.347c-38.52 0.041-71.314 24.511-83.727 58.749l-0.197 0.621h227.217c-12.623-34.857-45.421-59.324-83.94-59.37h-0.006zM709.142 6.367h-405.304c12.618 34.861 45.419 59.331 83.941 59.37h237.417c38.526-0.039 71.328-24.508 83.749-58.749l0.197-0.621zM590.425 125.084h-167.869c12.636 34.844 45.429 59.298 83.94 59.347h0.006c38.512-0.045 71.301-24.502 83.727-58.727l0.197-0.62zM506.502 720.607c-16.388 0.013-29.671 13.288-29.696 29.671v0.002c0 16.362 13.334 29.696 29.696 29.696 15.796-0.773 28.31-13.767 28.31-29.685s-12.514-28.912-28.241-29.682l-0.069-0.003z" />
<glyph unicode="&#xe922;" glyph-name="35" d="M990.23-55.341h-950.762c-16.342 0.013-29.585 13.263-29.585 29.607v0 59.503c0.045 38.567 24.54 71.401 58.815 83.838l0.621 0.197v34.927c0.041 38.561 24.526 71.393 58.793 83.838l0.621 0.197v303.015h-29.83c-16.342 0.013-29.585 13.263-29.585 29.607 0 0.008 0 0.016 0 0.023v-0.001 98.994c0 10.24 5.298 19.79 14.024 25.177l415.944 257.714c9.528 5.921 21.593 5.921 31.143 0l415.944-257.714c8.726-5.387 14.024-14.937 14.024-25.177v-98.994c0-0.007 0-0.014 0-0.022 0-16.344-13.243-29.594-29.583-29.607h-29.853v-303.015c34.901-12.629 59.399-45.466 59.437-84.030v-34.932c34.888-12.641 59.373-45.473 59.414-84.030v-59.508c0-16.344-13.243-29.594-29.583-29.607h-0.001zM901.231 599.040v52.847l-386.382 239.393-386.36-239.393v-52.847h772.742zM187.904 539.782v-297.939h193.247v297.939h-193.247zM425.784 539.782v-297.939h163.595v297.939h-163.595zM648.57 539.782v-297.939h193.224v297.939h-193.224zM901.231 152.732c0 16.473-13.401 29.874-29.852 29.874h-713.060c-16.451 0-29.83-13.401-29.83-29.874v-29.852h772.742v29.852zM960.646 33.77c0 16.451-13.401 29.852-29.83 29.852h-831.911c-16.451 0-29.83-13.401-29.83-29.852v-29.874h891.57v29.874zM514.849 816.996c49.161-0.089 88.983-39.943 89.021-89.107v-0.004c-0.038-49.168-39.861-89.022-89.013-89.11h-0.008c-49.151 0.101-88.961 39.95-88.999 89.107v0.004c0.038 49.16 39.848 89.009 88.989 89.11h0.010zM514.849 698.012c16.499 0 29.874 13.375 29.874 29.874s-13.375 29.874-29.874 29.874v0c-16.499 0-29.874-13.375-29.874-29.874s13.375-29.874 29.874-29.874v0z" />
<glyph unicode="&#xe923;" glyph-name="36" d="M979.857 39.891c-14.586-11.053-33.037-17.705-53.043-17.705-28.709 0-54.218 13.699-70.347 34.917l-0.159 0.218-275.367 365.724c-20.925-8.827-45.427-16.062-70.881-20.532l-2.091-0.304c0.39-3.117 0.613-6.724 0.613-10.383 0-48.722-39.497-88.22-88.22-88.22-28.686 0-54.175 13.692-70.287 34.897l-0.159 0.218-141.535 187.971c-11.13 14.605-17.832 33.107-17.832 53.174 0 48.71 39.487 88.198 88.198 88.198 12.422 0 24.245-2.568 34.965-7.203l-0.572 0.22c48.793 99.788 141.384 171.651 252.034 190.988l2.074 0.3c-0.396 3.141-0.623 6.776-0.623 10.463 0 28.692 13.697 54.184 34.909 70.296l0.218 0.159c14.586 11.047 33.036 17.696 53.038 17.696 28.708 0 54.217-13.695 70.351-34.909l0.159-0.217 141.535-187.949c11.043-14.589 17.689-33.040 17.689-53.044 0-28.712-13.692-54.225-34.902-70.368l-0.217-0.158c-14.589-11.067-33.050-17.729-53.067-17.729-12.363 0-24.132 2.541-34.814 7.129l0.574-0.219c-11.929-24.52-25.311-45.629-40.729-65.049l0.548 0.715 275.345-365.724c11.053-14.591 17.706-33.048 17.706-53.059 0-28.706-13.69-54.214-34.897-70.353l-0.217-0.158zM673.325 398.136l46.993 35.373-39.268 52.157c-13.961-12.527-29.311-24.183-45.576-34.53l-1.417-0.843 39.268-52.157zM302.369 597.437c-5.424 7.151-13.926 11.723-23.496 11.723-16.242 0-29.409-13.167-29.409-29.409 0-6.672 2.222-12.825 5.966-17.759l-0.053 0.073 141.535-187.971c5.438-6.659 13.649-10.876 22.844-10.876 16.253 0 29.429 13.176 29.429 29.429 0 6.295-1.976 12.128-5.343 16.913l0.062-0.094v0.022l-141.535 187.949zM594.098 796.761c-106.67-12.005-194.8-80.775-234.258-174.986l-0.705-1.898 121.99-162.059c106.65 12.073 194.754 80.827 234.257 175.008l0.707 1.899-121.99 162.037zM772.853 657.141c5.424-7.151 13.926-11.723 23.496-11.723 16.242 0 29.409 13.167 29.409 29.409 0 6.672-2.222 12.825-5.966 17.759l0.053-0.073-141.512 187.971c-5.424 7.151-13.926 11.723-23.496 11.723-16.242 0-29.409-13.167-29.409-29.409 0-6.672 2.222-12.825 5.966-17.759l-0.053 0.073 141.512-187.971zM950.272 128.067l-194.582 258.449-46.993-35.373 194.582-258.471c5.44-6.496 13.554-10.598 22.626-10.598 16.265 0 29.451 13.186 29.451 29.451 0 6.176-1.901 11.907-5.149 16.642l0.065-0.1zM544.456 160.723v-38.266c34.527-12.514 58.761-45.004 58.813-83.16v-62.737c0-0.007 0-0.014 0-0.022 0-16.229-13.156-29.384-29.384-29.384-0.008 0-0.016 0-0.023 0h-533.325c-0.007 0-0.014 0-0.022 0-16.229 0-29.384 13.156-29.384 29.384 0 0.008 0 0.016 0 0.023v-0.001 62.731c0.053 38.163 24.286 70.652 58.198 82.971l0.615 0.195v38.266c0.051 46.617 37.821 84.394 84.429 84.458h305.625c46.624-0.051 84.407-37.833 84.458-84.453v-0.005zM69.944 39.29v-33.325h474.513v33.325c0 16.206-13.201 29.407-29.429 29.407h-415.677c-16.206 0-29.407-13.201-29.407-29.407zM128.779 160.723v-33.191h356.842v33.191c0 14.136-11.487 25.622-25.622 25.622h-305.619c-14.113 0-25.6-11.487-25.6-25.622z" />
<glyph unicode="&#xe924;" glyph-name="37" d="M512-40.399c-269.751 0-488.424 218.673-488.424 488.424s218.673 488.399 488.424 488.399c269.629-0.268 488.131-218.77 488.424-488.399 0-269.751-218.673-488.424-488.424-488.424zM512 866.67c-231.205 0-418.645-187.441-418.645-418.645 0-231.229 187.441-418.67 418.645-418.67 231.107 0.268 418.402 187.563 418.645 418.67 0 231.205-187.441 418.645-418.645 418.645zM702.025 416.792l-279.089-139.557c-4.546-2.323-9.916-3.684-15.604-3.684-19.269 0-34.889 15.62-34.889 34.889 0 0.009 0 0.019 0 0.028v-0.001 279.113c0.044 19.263 15.669 34.861 34.938 34.861 5.668 0 11.021-1.35 15.755-3.745l-0.2 0.092 279.089-139.557c11.542-5.851 19.314-17.628 19.314-31.22s-7.773-25.369-19.116-31.128l-0.199-0.091zM442.222 531.115v-166.205l166.205 83.115-166.205 83.090z" />
<glyph unicode="&#xe925;" glyph-name="38" horiz-adv-x="870" d="M594.739 222.669c0.246 0.011 0.535 0.017 0.825 0.017 11.019 0 19.951-8.932 19.951-19.951s-8.932-19.951-19.951-19.951c-0.29 0-0.579 0.006-0.866 0.018l0.041-0.001h-226.202c-0.349-0.022-0.756-0.034-1.167-0.034-11.028 0-19.968 8.94-19.968 19.968s8.94 19.968 19.968 19.968c0.411 0 0.818-0.012 1.223-0.037l-0.056 0.003h226.202zM237.466 505.975c0 107.11 87.211 194.287 194.423 194.287 107.179 0 194.389-87.177 194.389-194.287 0-107.093-87.211-194.253-194.389-194.253-107.213 0-194.423 87.159-194.423 194.253zM278.716 525.926h73.353c1.57 41.25 7.936 79.684 18.364 109.841 1.741 5.052 3.55 9.728 5.41 14.063-51.627-20.173-89.788-67.26-97.126-123.904zM585.045 486.042h-73.353c-1.587-41.25-7.953-79.684-18.364-109.824-1.741-5.069-3.55-9.728-5.41-14.063 51.61 20.156 89.788 67.243 97.126 123.887zM493.329 635.767c10.411-30.157 16.777-68.591 18.347-109.841h73.37c-7.339 56.644-45.517 103.731-97.126 123.904 1.86-4.335 3.669-9.011 5.41-14.063zM408.149 389.239c10.684-30.942 21.606-37.649 23.74-37.649 2.116 0 13.039 6.707 23.723 37.649 9.062 26.197 14.643 60.023 16.145 96.802h-79.735c1.485-36.779 7.066-70.605 16.128-96.802zM471.757 525.926c-1.502 36.779-7.083 70.622-16.145 96.802-10.684 30.942-21.606 37.649-23.723 37.649-2.133 0-13.056-6.707-23.74-37.649-9.062-26.18-14.643-60.023-16.128-96.802h79.735zM375.842 362.155c-1.489 3.265-3.319 7.917-4.979 12.649l-0.432 1.414c-10.428 30.14-16.794 68.574-18.364 109.824h-73.353c7.339-56.644 45.5-103.731 97.126-123.887zM681.455 367.889c-2.061 3.103-3.289 6.915-3.289 11.014 0 6.88 3.459 12.953 8.733 16.573l0.068 0.044c3.111 2.059 6.929 3.285 11.034 3.285 6.885 0 12.964-3.449 16.604-8.713l0.044-0.067c2.051-3.103 3.272-6.911 3.272-11.004 0-6.888-3.458-12.969-8.734-16.6l-0.068-0.044c-3.107-2.059-6.922-3.285-11.023-3.285-6.887 0-12.966 3.457-16.597 8.73l-0.044 0.068zM720.469 633.6v-162.731c-0.455-10.667-9.213-19.143-19.951-19.143s-19.496 8.476-19.95 19.102l-0.001 0.041v162.679c-68.318 8.346-125.679 60.962-139.776 128.307h-325.939c-17.461-0.019-31.613-14.165-31.642-31.622v-370.469c8.596 4.2 18.704 6.656 29.386 6.656 0.019 0 0.038 0 0.056 0h-0.003c38.571-0.077 69.948-30.768 71.131-69.062l0.003-0.109c0.017-0.717 0.068-1.382 0.068-2.116l-0.017-157.252c0-17.579-2.406-34.935-6.246-52.070h371.302c17.48 0.019 31.647 14.18 31.676 31.656v172.718c0 11.019 8.932 19.951 19.951 19.951s19.951-8.932 19.951-19.951v0-172.715c-0.058-39.497-32.076-71.497-71.575-71.526h-381.204c-1.877-12.049-2.526-24.269-1.86-36.523l2.953-50.705c0.005-0.168 0.008-0.367 0.008-0.565 0-11.028-8.94-19.968-19.968-19.968-10.41 0-18.959 7.966-19.885 18.135l-0.006 0.078-2.953 50.807c-0.195 3.429-0.306 7.441-0.306 11.479 0 18.209 2.259 35.89 6.511 52.779l-0.317-1.487c1.468 6.997 3.721 13.926 5.649 20.804 4.215 15.223 6.417 31.317 6.417 47.104v157.252c-0.068 16.708-14.592 31.403-31.283 31.403-15.957 0-29.44-13.858-29.44-30.276v-115.217c-0.325-10.774-9.137-19.384-19.959-19.384s-19.634 8.61-19.959 19.354l-0.001 0.030v217.498h-13.449c-8.073 0-18.364-2.031-26.351-17.954l-41.267-82.159c-7.738-14.795-12.277-32.317-12.277-50.899 0-17.346 3.956-33.769 11.014-48.414l-0.29 0.668 52.514-111.104c14.37-28.484 17.323-51.814 15.223-74.121l-5.871-58.965c-1.375-9.807-9.708-17.271-19.785-17.271-11.028 0-19.968 8.94-19.968 19.968 0 0.438 0.014 0.873 0.042 1.304l-0.003-0.059 5.854 58.88c1.946 20.548-2.406 33.843-10.906 51.831l-53.146 112.435c-9.198 18.982-14.574 41.287-14.574 64.846 0 25.177 6.139 48.92 17.003 69.814l-0.398-0.841 41.165 81.971c12.954 25.771 34.97 39.953 62.020 39.953h13.449v291.806c0.068 39.481 32.074 71.463 71.558 71.492h322.614c3.345 87.023 75.179 156.791 163.055 156.791 89.993 0 163.209-73.165 163.209-163.089 0-83.166-62.652-151.962-143.258-161.826zM700.518 918.63c-67.994 0-123.307-55.262-123.307-123.204 0-66.867 56.388-123.221 123.307-123.221 67.994 0 123.307 55.279 123.307 123.221s-55.313 123.204-123.307 123.204zM689.545 738.372c-3.605-3.622-8.593-5.863-14.106-5.863s-10.501 2.241-14.105 5.862l-33.179 33.162c-3.193 3.526-5.146 8.225-5.146 13.381 0 11.028 8.94 19.968 19.968 19.968 5.16 0 9.863-1.957 13.406-5.17l-0.017 0.015 19.081-19.063 64.256 64.222c3.611 3.615 8.601 5.851 14.114 5.851 11.017 0 19.948-8.931 19.948-19.948 0-5.504-2.229-10.488-5.834-14.097v0l-78.387-78.319z" />
<glyph unicode="&#xe926;" glyph-name="39" horiz-adv-x="1249" d="M1225.585-35.82c-18.78-23.429-51.548-26.419-77.988-26.419h-356.024c-13.398 0-24.259 10.861-24.259 24.259s10.861 24.259 24.259 24.259h356.004c29.184 0 37.683 5.161 40.161 8.253 2.642 3.297 6.062 13.517-0.922 44.913-20.808 94.085-59.105 192.328-174.592 243.507l-104.755-160.748c-4.396-6.667-11.848-11.008-20.315-11.018h-0.001c-0.006 0-0.013 0-0.021 0-7.066 0-13.423 3.032-17.842 7.866l-0.017 0.019-90.071 98.386-90.071-98.386c-4.446-4.861-10.817-7.898-17.897-7.898-8.474 0-15.932 4.35-20.262 10.94l-0.057 0.092-104.755 160.748c-115.487-51.18-153.764-149.402-174.592-243.487-6.963-31.416-3.564-41.636-0.922-44.933 2.478-3.092 10.977-8.253 40.161-8.253h148.070c13.398 0 24.259-10.861 24.259-24.259s-10.861-24.259-24.259-24.259h-148.070c-26.46 0-59.228 2.99-78.008 26.399-19.19 23.921-14.664 58.429-8.602 85.811 27.197 122.921 86.221 267.53 300.79 307.016v90.378c-47.985 48.66-75.346 103.096-75.346 150.508v72.929c0 78.582 0 159.724 67.42 201.748 18.207 36.106 46.428 57.119 86.118 64.123 34.775 6.185 73.646 1.147 118.641-4.628 73.482-9.482 156.754-20.214 243.343 16.671 2.812 1.236 6.090 1.956 9.537 1.956 12.93 0 23.495-10.129 24.191-22.886l0.003-0.062c5.12-94.065-4.485-162.55-29.327-209.326-18.432-34.714-42.127-51.548-61.215-62.218v-58.307c0-47.268-27.218-101.56-74.936-150.098v-90.788c214.548-39.485 273.572-184.136 300.769-307.036 6.083-27.361 10.588-61.87-8.602-85.77zM884.879 349.696v56.607c-37.13-26.255-75.223-41.574-105.882-41.574-30.536 0-68.465 15.196-105.492 41.267v-56.3l105.697-67.523 105.677 67.523zM593.101 299.827l81.367-124.908 67.338 73.564-97.894 62.546c-20.149-3.274-37.293-7.172-54.043-12l3.232 0.798zM1026.724 741.171c17.531 33.014 25.887 83.661 24.883 150.835-86.753-27.341-168.694-16.794-235.971-8.11-89.887 11.571-134.144 14.787-157.655-38.318-2.221-4.929-5.882-8.881-10.443-11.406l-0.124-0.063c-40.264-21.975-47.698-64.266-49.009-129.372 30.7 11.674 51.732 25.006 76.554 51.548 4.437 4.738 10.731 7.69 17.714 7.69 5.111 0 9.853-1.581 13.763-4.281l-0.081 0.053c63.59-43.356 142.684-62.198 272.036-64.573 16.323 8.499 34.12 19.272 48.333 45.998zM959.836 597.873v49.234c-118.907 3.686-198.185 22.139-263.782 61.624-32.358-30.269-62.525-43.868-97.894-55.624v-55.235c0-35.922 25.088-81.592 67.154-122.204 38.687-37.315 84.378-62.403 113.684-62.403s74.977 25.088 113.684 62.403c42.045 40.612 67.154 86.282 67.154 122.204zM914.473 311.030l-97.894-62.546 67.338-73.564 81.388 124.908c-13.528 4.034-30.68 7.932-48.166 10.837l-2.665 0.366zM479.805 398.561c1.27-9.032-2.601-18.002-10.035-23.265-3.889-2.752-8.729-4.4-13.955-4.4-4.131 0-8.021 1.029-11.428 2.846l0.131-0.064-118.497 62.198c-47.124-13.353-98.243-12.493-145.101 2.58-52.86 17.233-96.643 50.147-127.049 93.185l-0.521 0.778c-79.36 112.66-52.265 268.902 60.396 348.283 39.886 28.593 89.677 45.722 143.468 45.722 15.24 0 30.159-1.375 44.639-4.008l-1.515 0.228c67.223-11.749 124.050-49.152 161.086-101.54l0.522-0.778c28.56-39.868 45.669-89.63 45.669-143.387 0-2.951-0.052-5.889-0.154-8.815l0.012 0.424c-1.802-51.767-18.926-99.204-46.945-138.303l0.517 0.759 18.76-132.444zM422.298 792.371c-30.27 42.849-76.073 72.991-129.054 82.278l-1.199 0.174c-10.453 1.938-22.479 3.046-34.765 3.046-43.339 0-83.457-13.793-116.203-37.229l0.604 0.411c-90.788-63.98-112.62-189.911-48.66-280.699 36.662-52.087 96.527-85.701 164.242-85.701 22.762 0 44.638 3.798 65.026 10.795l-1.408-0.42c2.279 0.783 4.904 1.236 7.635 1.236 4.113 0 7.986-1.026 11.378-2.835l-0.13 0.063 85.361-44.851-13.517 95.478c-0.152 1.022-0.24 2.202-0.24 3.402 0 5.653 1.933 10.855 5.174 14.98l-0.040-0.052c54.129 69.304 56.504 167.956 5.796 239.923zM675.226-13.722c13.414 0 24.33-10.854 24.33-24.248 0-13.414-10.793-24.269-24.187-24.269h-0.143c-13.398 0-24.259 10.861-24.259 24.259s10.861 24.259 24.259 24.259v0z" />
<glyph unicode="&#xe927;" glyph-name="40" horiz-adv-x="974" d="M959.152 757.214l-203.507-760.060c-8.084-29.433-34.602-50.699-66.088-50.699-6.281 0-12.364 0.846-18.142 2.431l0.48-0.112-238.592 63.975h-394.861c-18.885 0-34.195 15.31-34.195 34.195 0 0.006 0 0.012 0 0.018v-0.001 684.217c0 18.902 15.31 34.228 34.195 34.228h356.621l35.739 133.473c8.078 29.431 34.593 50.698 66.075 50.698 6.28 0 12.362-0.846 18.138-2.431l-0.48 0.112 396.271-106.244c29.423-8.090 50.68-34.604 50.68-66.083 0-6.301-0.852-12.403-2.446-18.198l0.113 0.48zM38.442 731.178v-684.217h512.806c18.886 0.029 34.185 15.34 34.195 34.228v615.794c-0.019 18.878-15.317 34.176-34.193 34.195h-512.808zM922.725 792.030c-4.526 7.772-11.833 13.504-20.527 15.875l-0.239 0.055-396.271 106.261c-2.66 0.742-5.716 1.176-8.871 1.192h-0.009c-15.724-0.054-28.951-10.681-32.946-25.141l-0.057-0.241-33.356-124.626h120.798c26.104 0 48.548-14.823 60.063-36.36l53.315-14.302 101.107 94.326 28.303-7.588-63.354-104.448c18.6-4.969 37.569-10.055 50.008-13.413l38.408 22.595 18.868-5.053-29.797-45.157 3.257-53.987-18.868 5.053-21.991 38.794-49.991 13.396 2.669-122.141-28.303 7.588-40.423 132.281-34.9 9.334v-271.847l2.199 8.158 33.020-8.847-17.693-66.107-17.526 4.717v-271.209c-0.033-34.073-25.040-62.295-57.7-67.351l-0.382-0.049 119.22-31.979c2.638-0.729 5.668-1.149 8.795-1.149 15.751 0 29.019 10.634 33.015 25.115l0.057 0.241 203.524 760.043c0.745 2.659 1.173 5.713 1.173 8.867 0 6.299-1.707 12.199-4.684 17.262l0.087-0.16zM768.134 436.165l8.763 33.070 32.483-8.595-8.746-33.087-32.499 8.612zM703.186 329.938l17.693 66.090 33.020-8.847-17.693-66.090-33.020 8.847zM703.253 453.405l8.746 33.070 32.483-8.612-8.746-33.053-32.483 8.595zM656.585 23.762l-33.020 8.863 61.944 231.306 33.020-8.847-61.944-231.323zM638.372 470.612l8.746 33.070 32.483-8.612-8.746-33.070-32.483 8.612zM311.934 252.231c-113.278 0-205.119 91.891-205.119 205.27 0 113.362 91.841 205.27 205.119 205.27 113.295 0 205.136-91.908 205.136-205.27 0-113.379-91.841-205.27-205.136-205.27zM306.965 286.93c1.695-0.034 3.273-0.487 4.969-0.487 1.712 0 3.29 0.453 4.969 0.487 12.305 18.902 28.236 50.126 37.888 93.587h-85.697c9.652-43.495 25.617-74.718 37.871-93.587zM360.498 414.745c1.578 13.446 2.719 27.48 2.719 42.756s-1.125 29.31-2.669 42.773h-97.213c-1.561-13.463-2.686-27.497-2.686-42.773s1.158-29.31 2.719-42.756h97.129zM263.403 294.333c-11.029 21.756-22.092 50.663-29.243 86.184h-74.030c21.332-41.35 57.884-72.334 102.064-85.865l1.209-0.318zM140.993 457.501c0-14.856 2.501-29.008 6.077-42.756h81.87c-1.521 12.777-2.416 27.631-2.467 42.685v0.072c0 15.125 0.99 29.209 2.417 42.773h-81.819c-3.576-13.748-6.077-27.933-6.077-42.773zM160.13 534.469h73.946c7.084 35.471 18.13 64.143 29.36 86.217-45.157-13.497-82.256-44.821-103.306-86.217zM316.953 628.056c-1.712 0.034-3.29 0.504-5.019 0.504-1.695 0-3.29-0.453-4.969-0.504-12.775-19.574-28.437-50.696-37.922-93.587h85.798c-9.451 42.723-25.046 73.879-37.888 93.587zM360.431 620.687c11.281-22.108 22.31-50.764 29.394-86.217h73.929c-21.341 41.369-57.912 72.366-102.115 85.899l-1.209 0.318zM482.875 457.501c0 14.84-2.501 29.008-6.060 42.773h-81.819c1.427-13.564 2.417-27.648 2.417-42.773 0-15.142-1.024-29.209-2.468-42.756h81.87c3.559 13.748 6.060 27.9 6.060 42.756zM389.724 380.517c-7.134-35.521-18.18-64.411-29.226-86.184 45.377 13.863 81.92 44.843 102.808 85.231l0.448 0.953h-74.030zM482.875 115.385h-341.882v34.212h341.882v-34.212z" />
<glyph unicode="&#xe928;" glyph-name="41" horiz-adv-x="983" d="M944.456 25.846v36.045h36.065v-36.045h-36.065zM944.456 458.22h36.065v-360.325h-36.065v360.325zM890.368-64.246h-576.983c-9.953 0-18.022 8.069-18.022 18.022v0 100.639l-77.394-77.332-25.498 25.457 126.198 126.116c15.169 15.191 24.55 36.165 24.55 59.331s-9.381 44.14-24.551 59.331l0.001-0.001c-3.258 3.261-5.273 7.764-5.273 12.739s2.015 9.478 5.274 12.739v0l126.218 126.116c5.677 5.911 9.173 13.953 9.173 22.812 0 18.199-14.753 32.952-32.952 32.952-8.869 0-16.92-3.504-22.844-9.203l0.011 0.010-126.218-126.095-25.498 25.457 48.804 48.763v82.637h-78.316c-37.95-0.123-69.012-29.452-71.89-66.681l-0.015-0.247-12.042-168.55c-0.355-4.508-2.307-8.502-5.283-11.468h-0.001l-90.153-90.071-25.498 25.477 85.381 85.32 11.592 161.874c4.352 56.227 50.966 100.225 107.892 100.393h78.333v234.189c0 9.953 8.069 18.022 18.022 18.022h54.108v36.024c0.003 4.976 2.022 9.479 5.284 12.738l23.306 23.306-23.306 23.286c-3.264 3.258-5.283 7.763-5.284 12.738v0 61.276c0 9.953 8.069 18.022 18.022 18.022h432.722c0.006 0 0.013 0 0.020 0 9.953 0 18.022-8.069 18.022-18.022v0-61.276c-0.001-4.976-2.020-9.48-5.284-12.738l-23.327-23.286 23.327-23.306c3.262-3.26 5.281-7.763 5.284-12.738v-36.025h54.088c9.953 0 18.022-8.069 18.022-18.022v0-792.699c0-9.953-8.069-18.022-18.022-18.022v0zM800.215 793.068l-30.781 30.761c-3.262 3.255-5.28 7.756-5.28 12.728s2.018 9.473 5.28 12.728v0l30.781 30.761v35.799h-396.677v-35.799l30.781-30.761c7.045-7.025 7.045-18.432 0-25.457l-30.781-30.761v-28.57h396.677v28.57zM872.325 728.474h-540.897v-298.824l41.349 41.308c12.49 12.49 29.745 20.216 48.804 20.216s36.314-7.725 48.804-20.216v0c12.491-12.474 20.217-29.716 20.217-48.763s-7.727-36.288-20.217-48.762l-114.422-114.341c14.562-19.629 23.311-44.331 23.311-71.076 0-33.119-13.415-63.104-35.108-84.819l-12.738-12.758v-118.641h540.897v756.675zM746.127 169.984h-288.481v36.024h288.481v-36.024zM746.127 97.894h-288.481v36.045h288.481v-36.045zM547.779 25.846h-36.045v36.045h36.045v-36.045zM619.909 25.846h-36.065v36.045h36.065v-36.045zM692.040 25.846h-36.065v36.045h36.065v-36.045zM712.643 293.868c-31.085-21.171-69.461-33.804-110.788-33.804-44.859 0-86.241 14.884-119.478 39.983l0.501-0.363 21.647 28.815c26.758-20.167 60.563-32.299 97.201-32.299 34.49 0 66.469 10.751 92.768 29.085l-0.529-0.349c42.54 29.63 70.030 78.301 70.030 133.393 0 16.013-2.322 31.484-6.649 46.093l0.291-1.146-67.564-38.605-16.425-82.043c-0.993-4.797-3.772-8.814-7.596-11.408l-0.063-0.041-54.108-36.045c-2.864-1.891-6.378-3.017-10.155-3.017-1.453 0-2.868 0.167-4.225 0.482l0.126-0.025c-4.962 1.203-9.036 4.334-11.463 8.535l-0.046 0.087-72.11 126.095c-1.485 2.568-2.361 5.648-2.361 8.934 0 1.555 0.196 3.064 0.565 4.504l-0.027-0.125 18.043 72.069c1.735 6.738 7.096 11.881 13.83 13.271l0.117 0.020 79.974 15.995 11.612 34.796c-10.205 2.283-21.925 3.591-33.951 3.591-66.107 0-122.981-39.527-148.279-96.235l-0.411-1.031-33.034 14.418c31.408 70.591 100.929 118.92 181.737 118.92 5.363 0 10.677-0.213 15.933-0.631l-0.694 0.044c85.138-6.715 154.7-66.293 176.237-145.637l0.321-1.389c4.17-15.173 6.566-32.595 6.566-50.577 0-68.163-34.433-128.284-86.854-163.918l-0.69-0.443zM670.003 605.225l-14.868-44.605c-2.098-6.089-7.185-10.639-13.461-11.94l-0.117-0.020-79.053-15.77-13.517-54.047 58.941-103.055 31.826 21.197 16.507 82.78c1.063 5.217 4.269 9.531 8.638 12.058l0.087 0.046 78.746 44.933c-16.98 29.993-42.268 53.574-72.736 68.001l-0.992 0.423zM511.734 818.545h-36.065v36.024h36.065v-36.024zM583.844 818.545h-36.065v36.024h36.065v-36.024zM655.974 818.545h-36.065v36.024h36.065v-36.024zM728.084 818.545h-36.045v36.024h36.045v-36.024zM73.155 414.433l-4.588-65.577-36.065 2.54 4.69 65.618c7.246 93.718 84.944 167.053 179.828 167.322h24.255v-36.045h-24.228c-75.936-0.202-138.103-58.877-143.862-133.363l-0.031-0.495z" />
<glyph unicode="&#xe929;" glyph-name="42" horiz-adv-x="1004" d="M953.926 75.083c-0.683-1.265-71.68-128.422-134.385-128.422-26.002 0-53.429 21.845-76.659 47.526h-352.537c-0.185-0.006-0.403-0.010-0.622-0.010-10.645 0-19.275 8.63-19.275 19.275s8.63 19.275 19.275 19.275c0.219 0 0.437-0.004 0.654-0.011l-0.032 0.001h321.917c-8.575 11.847-17.542 25.685-25.83 39.966l-1.296 2.419c-31.081 57.766-42.566 107.118-40.96 176.008 0.247 9.854 7.852 17.856 17.514 18.728l0.075 0.005c14.256 1.245 29.535 5.1 45.056 11.103-25.416 26.403-55.38 48.208-88.668 64.195l-1.845 0.798c3.594-64.954-31.644-107.54-54.031-134.546-3.554-4.291-8.883-7.005-14.846-7.005-5.234 0-9.98 2.091-13.448 5.482l0.004-0.003-108.705 105.592-108.644-105.592c-3.469-3.382-8.216-5.469-13.45-5.469-5.955 0-11.279 2.7-14.815 6.944l-0.025 0.031c-22.428 26.985-57.725 69.552-54.091 134.646-118.041-55.718-167.012-166.109-187.051-256.301-5.461-24.636-5.461-40.579-0.020-47.345 5.14-6.425 19.436-9.658 42.506-9.658h126.113c0.185 0.006 0.403 0.010 0.622 0.010 10.645 0 19.275-8.63 19.275-19.275s-8.63-19.275-19.275-19.275c-0.219 0-0.437 0.004-0.654 0.011l0.032-0.001h-126.113c-24.777 0-55.437 2.731-72.563 24.034-17.528 21.825-13.272 54.131-7.57 79.832 15.962 71.921 44.213 133.763 83.948 183.878 41.321 52.083 94.088 89.771 157.274 112.58 2.124 0.912 7.246 2.675 12.411 4.341l3.009 0.839c-47.747 47.626-79.872 110.211-79.872 166.249v30.278c-22.791 10.058-38.417 32.444-38.45 58.484v0.004c0 27.166 17.127 50.377 41.141 59.533 5.489 50.457 25.995 95.311 56.891 130.904l-0.25-0.294c30.744 35.319 71.256 61.402 117.322 74.076l1.682 0.395c3.349 12.514 14.577 21.583 27.927 21.604h69.875c13.914 0 25.54-9.879 28.311-22.97 92.215-27.11 160.273-106.236 170.695-202.643l0.092-1.052c24.211-9.409 41.071-32.506 41.121-59.546v-0.006c-0.031-26.034-15.639-48.415-38.003-58.327l-0.407-0.161v-30.278c0-56.099-32.105-118.643-79.872-166.229 8.165-2.518 13.093-4.219 17.982-6.002l-3.144 1.002c56.461-20.259 104.649-52.425 143.782-96.095 23.846 14.242 44.395 30.696 62.441 49.565l0.104 0.109c3.524 3.688 8.482 5.981 13.975 5.981s10.451-2.293 13.968-5.974l0.007-0.007c41.482-43.63 97.923-74.431 143.782-78.446 9.754-0.87 17.372-8.899 17.588-18.752v-0.021c1.546-68.869-9.919-118.202-40.96-175.987zM545.692 252.235c19.938 26.082 39.153 60.275 29.897 109.829-6.195 2.171-15.023 4.73-23.987 6.944l-2.416 0.505c-17.983-13.459-38.587-24.951-60.654-33.509l-1.769-0.604c-6.907-2.57-13.553-4.678-20.058-6.445l78.989-76.72zM304.891 252.215l78.928 76.72c-8.53 2.313-15.289 4.542-21.903 7.062l1.604-0.537c-23.729 9.16-44.239 20.628-62.818 34.536l0.675-0.483c-11.393-2.733-20.22-5.298-28.898-8.19l2.495 0.721c-9.236-49.614 9.979-83.787 29.917-109.829zM228.392 718.416h110.652c20.199 52.766 23.873 96.216 24.516 160.427-70.977-23.492-124.165-86.478-135.168-160.427zM452.829 902.395h-50.598c-0.12-74.591-2.008-125.089-22.167-183.979h94.991c-20.219 58.89-22.086 109.387-22.227 183.979zM491.52 877.317c0.703-63.368 4.498-106.536 24.536-158.901h106.155c-11.16 74.038-61.73 134.006-129.303 158.462l-1.387 0.439zM664.114 654.707c0 13.874-11.284 25.158-25.178 25.158h-295.133c-0.924-1.024-2.028-0.904-3.152 0h-128.984c-13.914 0-25.239-11.284-25.239-25.158 0-13.894 11.324-25.219 25.239-25.219h427.269c13.894 0 25.178 11.324 25.178 25.219zM625.724 565.941v25.018h-400.846v-25.018c0-73.306 71.078-164.141 152.094-194.379 35.619-13.212 60.818-13.232 96.356-0.040 81.177 30.118 152.395 120.973 152.395 194.419zM819.521 307.913c-21.171-19.812-45.226-36.941-71.376-50.609l-1.789-0.852c-21.303-10.822-42.948-18.593-63.749-22.548 0.562-53.75 11.023-93.224 36.503-140.589 22.809-42.546 76.198-108.122 100.432-108.122 24.215 0 77.603 65.576 100.412 108.122 25.439 47.345 35.88 86.839 36.483 140.589-45.859 8.734-95.854 35.72-136.915 74.009zM825.725 94.84c-3.538-3.905-8.627-6.347-14.288-6.347-4.419 0-8.49 1.488-11.739 3.991l0.045-0.033-32.969 25.158c-4.146 3.564-6.755 8.814-6.755 14.674 0 10.668 8.648 19.315 19.315 19.315 4.060 0 7.827-1.253 10.937-3.392l-0.065 0.042 18.854-14.416 51.059 56.36c3.517 3.682 8.465 5.971 13.947 5.971 10.645 0 19.275-8.63 19.275-19.275 0-4.808-1.76-9.205-4.672-12.581l0.021 0.025-62.966-69.491zM303.084 32.718c10.642 0 19.315-8.634 19.315-19.275s-8.573-19.255-19.215-19.255h-0.1c-10.64 0-19.265 8.625-19.265 19.265s8.625 19.265 19.265 19.265v0z" />
<glyph unicode="&#xe92a;" glyph-name="43" horiz-adv-x="794" d="M691.2-47.846h-588.278c-46.387 0.036-83.983 37.624-84.031 84.005v714.005c0 44.784 35.318 81.147 79.538 83.55l447.927 123.8c6.666 1.672 12.33 2.591 18.787 2.654 45.181 0.46 84.031-36.718 84.031-82.61v-43.405h42.026c46.38-0.036 83.971-37.612 84.031-83.983v-714.006c-0.048-46.385-37.643-83.974-84.027-84.010h-0.003zM607.148 877.558c0 25.767-25.475 45.62-49.988 39.372l-299.447-82.777h349.435v43.405zM733.226 750.164c0 23.155-18.871 42.005-42.026 42.005h-588.278c-23.188-0.036-41.978-18.818-42.026-42v-714.005c0-23.155 18.871-42.005 42.026-42.005h588.278c23.188 0.036 41.978 18.818 42.026 42v714.005zM397.061 246.168c-127.436 0-231.111 103.612-231.111 230.985 0 127.394 103.675 231.006 231.111 231.006s231.111-103.612 231.111-231.006c0-127.373-103.675-230.985-231.111-230.985zM210.087 498.155h82.359c2.32 57.219 14.148 114.103 34.649 154.248-63.501-26.066-109.031-84.013-116.928-153.382l-0.080-0.866zM292.446 456.15h-82.359c7.985-70.226 53.512-128.164 115.752-153.77l1.255-0.457c-20.501 40.145-32.329 97.029-34.649 154.227zM397.061 666.154c-24.074 0-57.929-65.055-62.192-167.999h124.385c-4.263 102.943-38.118 167.999-62.192 167.999zM334.869 456.15c4.263-102.922 38.118-167.999 62.192-167.999s57.929 65.076 62.192 167.999h-124.385zM467.007 652.403c20.522-40.145 32.35-97.029 34.67-154.248h82.359c-7.995 70.234-53.527 128.176-115.773 153.79l-1.256 0.457zM501.676 456.15c-2.32-57.198-14.148-114.082-34.67-154.227 63.496 26.069 109.026 84.002 116.948 153.359l0.081 0.868h-82.359zM182.126 203.055l420.258-0.063c11.201-0.515 20.086-9.721 20.086-21.002s-8.886-20.487-20.040-21.001l-0.046-0.002-420.258 0.063c-11.599 0-21.002 9.403-21.002 21.002s9.403 21.002 21.002 21.002v0zM266.156 118.983h252.113c11.594 0 20.992-9.398 20.992-20.992s-9.398-20.992-20.992-20.992v0h-252.113c-11.594 0-20.992 9.398-20.992 20.992s9.398 20.992 20.992 20.992v0z" />
<glyph unicode="&#xe92b;" glyph-name="44" horiz-adv-x="860" d="M817.848 607.785l35.43-70.943c1.335-2.607 2.118-5.687 2.118-8.95 0-11.024-8.933-19.961-19.955-19.968h-59.843v-259.625c0-11.021-8.928-19.956-19.946-19.968h-0.001c-11.022-0.023-19.948-8.964-19.948-19.988 0 0 0 0 0 0v0c0-11.021-8.928-19.956-19.946-19.968h-99.739v-231.67c-0.012-11.012-8.935-19.936-19.946-19.948h-478.762c-55.082 0.093-99.703 44.75-99.738 99.837v663.043c0.023 55.099 44.648 99.767 99.729 99.86h219.432v99.86c0 11.039 8.95 19.968 19.948 19.968 11.019 0.012 19.948 8.947 19.948 19.968 0 0 0 0 0 0v0c0 11.039 8.95 19.988 19.948 19.988h119.706c10.998 0 19.948-8.95 19.948-19.988 0-10.998 8.929-19.968 19.948-19.968 11.015 0.023 19.936 8.952 19.948 19.967v0.001c0 11.039 8.929 19.988 19.948 19.988h119.685c11.018 0 19.948-8.95 19.948-19.988 0-10.998 8.95-19.968 19.948-19.968 11.018 0 19.948-8.929 19.948-19.968v-191.713h59.843c11.023-0.007 19.956-8.944 19.956-19.968 0-3.263-0.783-6.343-2.17-9.063l0.052 0.113-35.43-70.943zM616.018 228.332h83.21c6.187 17.083 19.401 30.311 36.057 36.383l0.418 0.133v243.077h-119.685v-279.593zM137.257 759.562v-301.568c0.013-0.27 0.020-0.586 0.020-0.904 0-11.028-8.94-19.968-19.968-19.968s-19.968 8.94-19.968 19.968c0 0.318 0.007 0.634 0.022 0.949l-0.002-0.044v298.148c-23.438-8.514-39.881-30.587-39.895-56.503v-663.042c0.023-25.909 16.463-47.973 39.478-56.351l0.417-0.133v298.127c-0.013 0.27-0.020 0.586-0.020 0.904 0 11.028 8.94 19.968 19.968 19.968s19.968-8.94 19.968-19.968c0-0.318-0.007-0.634-0.022-0.949l0.002 0.044v-301.548h438.866v782.868h-438.866zM735.703 882.811c-17.070 6.21-30.283 19.436-36.342 36.098l-0.133 0.418h-86.63c-8.481-23.437-30.524-39.892-56.417-39.936h-0.005c-25.906 0.035-47.96 16.492-56.311 39.519l-0.132 0.417h-86.61c-6.201-17.080-19.42-30.305-36.077-36.382l-0.418-0.133v-83.313h219.443c11.018 0 19.948-8.95 19.948-19.968v-71.885h119.685v175.165zM777.708 616.714l25.457 50.975h-187.146v-119.828h187.146l-25.457 50.975c-1.337 2.603-2.12 5.68-2.12 8.94s0.783 6.336 2.172 9.052l-0.052-0.112zM516.28 188.375h-319.181c-11.034 0-19.978 8.945-19.978 19.978s8.945 19.978 19.978 19.978h319.181c10.761-0.355 19.349-9.164 19.349-19.978s-8.588-19.623-19.316-19.977l-0.032-0.001zM356.68 268.268c-98.98 0-179.528 80.65-179.528 179.732 0 99.123 80.548 179.753 179.528 179.753 99 0 179.548-80.63 179.548-179.753 0-99.082-80.548-179.732-179.548-179.732zM218.501 467.988h58.86c1.802 39.506 8.991 77.906 21.34 107.151-42.532-19.878-73.025-59.295-80.104-106.379l-0.095-0.772zM277.361 428.032h-58.86c7.17-47.852 37.666-87.265 79.34-106.769l0.86-0.361c-12.349 29.225-19.538 67.625-21.34 107.131zM356.68 587.796c-10.691 0-35.656-41.841-39.404-119.808h78.828c-3.748 77.967-28.713 119.808-39.424 119.808zM317.276 428.032c3.748-77.967 28.713-119.828 39.404-119.828 10.711 0 35.676 41.882 39.424 119.849l-78.828-0.020zM414.679 575.14c12.349-29.245 19.517-67.645 21.34-107.151h58.86c-7.175 47.856-37.668 87.273-79.34 106.79l-0.86 0.362zM436.019 428.052c-1.802-39.506-8.991-77.926-21.34-107.151 42.534 19.866 73.029 59.279 80.104 106.359l0.095 0.771-58.86 0.020zM236.995 148.439h239.391c11.028 0 19.968-8.94 19.968-19.968s-8.94-19.968-19.968-19.968h-239.391c-11.028 0-19.968 8.94-19.968 19.968s8.94 19.968 19.968 19.968v0zM117.309 348.14c-11.019 0.012-19.948 8.947-19.948 19.968 0 11.028 8.94 19.968 19.968 19.968 0.007 0 0.014 0 0.022 0h-0.001c11.019-0.012 19.948-8.947 19.948-19.968 0-11.028-8.94-19.968-19.968-19.968-0.007 0-0.014 0-0.022 0h0.001z" />
<glyph unicode="&#xe92c;" glyph-name="45" horiz-adv-x="1041" d="M1003.861 501.419l-235.861-231.868v-333.551h-768v1024.017h768v-432.589l119.467 108.322c23.347 23.347 43.059 23.757 66.406 0.393l49.988-49.988c23.347-23.381 39.526-40.977 0-84.736zM716.8 482.15v426.65h-665.6v-921.6h665.6v221.884c-21.009-20.77-34.816-26.453-41.011-29.355l-169.37-79.070c-3.701-1.761-8.043-2.789-12.625-2.789-16.551 0-29.969 13.418-29.969 29.969 0 4.586 1.030 8.932 2.872 12.818l-0.078-0.182s64.87 122.436 79.514 153.924c8.055 19.217 170.667 177.647 170.667 177.647v10.103zM802.133 499.217l-204.8-204.817-68.267-136.516 136.533 68.25 211.968 214.716-7.168 7.168-60.126 59.341-8.141-8.141zM972.8 550.417l-58.59 57.378-72.243-68.745 64.717-63.351 72.26 68.557-6.144 6.161zM614.4 704h-460.8c-16.538 0-17.067 0.529-17.067 17.084 0 16.538 0.529 34.116 17.067 34.116h443.733c16.538 0 34.133-0.512 34.133-17.067 0-16.538-0.529-34.133-17.067-34.133zM512 601.617c16.538 0 28.348-9.25 28.348-25.788 0-16.555-11.81-25.412-28.348-25.412h-358.4c-16.538 0-24.439 8.858-24.439 25.412 0 16.538 7.902 25.788 24.439 25.788h358.4zM153.6 448.017h256l5.001-1.997c16.538 0 29.935-13.414 29.935-29.952 0-16.555-18.398-19.251-34.935-19.251h-256c-16.538 0-24.439 2.697-24.439 19.251 0 16.538 7.902 31.949 24.439 31.949z" />
<glyph unicode="&#xe92d;" glyph-name="46" horiz-adv-x="1117" d="M1117.091 773.818h-74.473v111.728h-651.636c-13.442 37.925-50.623 74.454-93.091 74.454h-297.891v-912.272h428.218v-111.709h260.655v111.709h428.218v726.090zM986.764 773.818h-595.782v55.873h595.782v-55.873zM633.018-8.127h-148.945v242.036h-111.709l186.182 223.418 186.182-223.418h-111.709v-242.036zM1061.236 103.582h-372.364v74.473h167.564l-297.891 372.345-297.891-372.345h167.564v-74.473h-372.364v800.563h242.036c17.967 0 37.236-19.251 37.236-37.218v-148.945h726.109v-614.4z" />
<glyph unicode="&#xe92e;" glyph-name="47" d="M1012.626 830.482c0.006 0.455 0.010 0.993 0.010 1.531 0 32.552-13.236 62.012-34.62 83.291l-0.005 0.005c-21.242 21.381-50.662 34.615-83.173 34.615-0.125 0-0.251 0-0.376-0.001h-1.243c-33.068-0.241-62.845-14.13-84.016-36.306l-0.043-0.046-175.653-183.095-459.611 152.137-135.753-135.771 384.11-236.581-158.043-164.736-124.050 20.37-131.072-131.109 213.76-74.898 74.862-213.797 131.072 131.090-20.37 124.087 164.681 158.098 236.526-384.219 135.735 135.771-152.119 459.776 183.040 175.707c22.219 21.223 36.107 51.005 36.352 84.032v0.045zM935.515 788.901l-209.81-201.454 152.357-460.544-57.399-57.417-235.685 382.903-239.671-230.071 20.498-124.855-43.502-43.502-53.266 152.137-152.119 53.303 43.502 43.502 124.818-20.498 229.998 239.744-382.793 235.758 57.399 57.417 460.434-152.411 201.362 209.883c10.637 11.168 25.586 18.144 42.166 18.249h0.641c15.854 0 30.72-6.162 41.947-17.371 11.374-11.374 17.536-26.514 17.371-42.587-0.114-16.598-7.088-31.544-18.226-42.163l-0.023-0.022z" />
<glyph unicode="&#xe92f;" glyph-name="48" horiz-adv-x="3140" d="M3119.138 487.868c-113.391-94.549-243.78-169.813-365.295-250.812-15.292-11.127-38.98 4.062-42.257 18.671-16.691 85.879-39.287 175.514-30.686 261.939l-2.97 1.877c-344.644 258.116-888.934 171.964-1280.102 104.755-450.253-75.298-909.414-224.29-1250.816-536.303-35.874-43.93-73.626-90.761-105.472-141.38-14.95-23.859-47.548-3.004-35.533 22.733l16.828 26.795c-11.844 7.578-15.121 22.221-5.769 37.137 23.552 30.891 53.043 57.924 79.565 86.938 530.944 792.235 1819.511 1058.031 2633.557 608.188 3.277 64.717 11.401 130.526 11.708 197.154-1.707 30.31 35.123 36.011 53.965 19.763 135.066-115.644 223.471-272.486 326.076-413.286 9.967-10.547 14.336-30.071-2.799-44.169zM2796.954 861.082c-6.554-50.074-19.046-96.393-22.63-148.446-3.413-18.637-19.797-24.917-30.549-22.187-5.632-8.943-15.292-11.093-26.044-8.397-783.053 333.926-1662.976 216.098-2289.971-305.869 302.114 170.121 657.681 260.028 987.853 316.109 242.074 41.472 483.635 62.327 726.938 52.838 189.781-8.602 411.409-46.012 539.58-199.031 6.11 29.525 49.152 18.705 49.766-6.758 6.69-75.332 15.258-147.661 28.672-218.863 99.499 65.809 201.967 129.741 294.468 204.254-83.422 111.855-159.369 235.588-258.082 336.35z" />
<glyph unicode="&#xe930;" glyph-name="49" horiz-adv-x="1158" d="M915.59 481.747h-120.765l-124.861-125.062c-6.096-6.078-14.507-9.837-23.797-9.837-18.614 0-33.703 15.089-33.703 33.703 0 0.007 0 0.014 0 0.021v-0.001 103.58c-114.109 16.429-202.084 114.977-202.084 233.717 0 130.204 105.761 236.099 235.765 236.099h269.446c131.25 0 238.013-105.895 238.013-236.099 0-130.182-106.763-236.121-238.013-236.121zM915.59 886.517h-269.446c-92.85 0-168.403-75.665-168.403-168.648 0-93.006 75.553-168.648 168.403-168.648 18.61 0 33.681-15.093 33.681-33.747v-53.471l77.223 77.357c6.101 6.087 14.519 9.853 23.817 9.862h134.724c94.097 0 170.652 75.642 170.652 168.648 0 92.984-76.555 168.648-170.652 168.648zM915.59 684.143c-18.604 0.013-33.681 15.097-33.681 33.703 0 0.008 0 0.016 0 0.023v-0.001c0 18.632 15.071 33.747 33.681 33.747s33.681-15.115 33.681-33.747-15.071-33.725-33.681-33.725zM780.867 684.143c-18.604 0.013-33.681 15.097-33.681 33.703 0 0.008 0 0.016 0 0.023v-0.001c0 18.632 15.071 33.747 33.681 33.747s33.681-15.115 33.681-33.747-15.071-33.725-33.681-33.725zM646.144 684.143c-18.604 0.013-33.681 15.097-33.681 33.703 0 0.008 0 0.016 0 0.023v-0.001c0 18.632 15.071 33.747 33.681 33.747s33.681-15.115 33.681-33.747-15.071-33.725-33.681-33.725zM277.971 458.641c43.253-90.513 152.019-198.456 244.024-242.176l85.727 57.233c8.659 5.788 19.501 7.235 29.362 3.94l201.617-67.45c13.48-4.63 22.995-17.198 22.995-31.989 0-0.008 0-0.016 0-0.024v0.001-134.901c0-55.83-45.123-101.198-100.552-101.198-186.279 0-377.656 84.28-525.023 231.268-147.545 147.122-232.159 338.41-232.159 524.755 0 55.541 45.323 100.73 101.042 100.73h134.723c14.492 0 27.359-9.283 31.944-23.040l67.361-201.906c3.295-9.884 1.848-20.747-3.918-29.407l-57.144-85.838zM211.701 480.723l58.212 87.418-54.45 163.217h-110.458c-18.899 0-33.681-14.603-33.681-33.258 0-353.948 335.249-688.573 689.82-688.573 18.61 0 33.191 14.826 33.191 33.747v110.614l-162.95 54.539-87.329-58.301c-5.256-3.556-11.737-5.677-18.713-5.677-4.502 0-8.797 0.883-12.722 2.486l0.225-0.081c-56.298 22.573-119.585 66.983-178.176 125.017-58.991 58.457-103.825 121.522-126.219 177.597-1.521 3.71-2.405 8.016-2.405 12.528 0 6.977 2.112 13.462 5.731 18.848l-0.077-0.121z" />
<glyph unicode="&#xe931;" glyph-name="50" horiz-adv-x="757" d="M467.456 207.605c110.338 6.397 208.601 53.406 281.028 126.159l0.016 0.016c5.298 5.294 8.575 12.61 8.575 20.691s-3.277 15.397-8.575 20.691l-64.601 64.534c38.332 45.782 63.888 103.458 70.498 166.769l0.114 1.345c1.118 9.914 1.756 21.406 1.756 33.048 0 75.141-26.576 144.075-70.84 197.916l0.432-0.541c-51.27 63.071-125.764 105.545-210.268 114.33l-1.343 0.113c-9.923 1.118-21.425 1.756-33.077 1.756-76.295 0-146.205-27.344-200.462-72.766l0.49 0.399-64.668 64.601c-5.298 5.299-12.617 8.577-20.703 8.577s-15.405-3.278-20.703-8.577v0c-78.473-77.965-127.044-185.945-127.044-305.269 0-0.413 0.001-0.826 0.002-1.238v0.064c-0.001-0.354-0.002-0.773-0.002-1.193 0-119.318 48.572-227.292 127.021-305.227l0.023-0.023c70.762-71.094 166.166-117.606 272.316-125.641l1.448-0.088v-63.265c0-0.89 0.045-1.759 0.111-2.605h-116.736c-86.417 0-156.761-70.278-156.761-156.627 0-16.184 13.134-29.273 29.295-29.273h546.749c16.161 0 29.273 13.089 29.273 29.273 0 86.35-70.322 156.627-156.761 156.627h-116.714c0.067 0.846 0.111 1.714 0.111 2.605v62.82zM677.777 14.803h-479.232c12.933 40.2 49.981 68.786 93.713 68.831h291.801c43.741-0.029 80.797-28.622 93.525-68.135l0.194-0.696zM640.378 801.347c35.475-43.132 57.046-98.868 57.233-159.636v-0.041l-119.251 67.45c-11.658 6.778-25.655 10.778-40.588 10.778-19.73 0-37.829-6.984-51.958-18.616l0.141 0.113-10.507-8.504-16.050 5.944c-6.219 2.32-11.090 7.017-13.588 12.957l-0.058 0.155c-1.17 2.691-1.851 5.826-1.851 9.12 0 3.565 0.797 6.943 2.223 9.967l-0.060-0.143 35.751 78.225c4.736 10.028 7.501 21.784 7.501 34.186 0 19.26-6.668 36.963-17.823 50.925l0.126-0.164c68.498-8.044 127.751-42.276 168.392-92.25l0.368-0.467zM397.802 892.104l27.559-33.903c5.721-7.034 6.945-16.54 3.161-24.776l-35.751-78.247c-4.679-10.031-7.408-21.779-7.408-34.164 0-11.383 2.306-22.227 6.476-32.092l-0.203 0.541c8.989-21.103 25.884-37.376 46.871-45.335l0.567-0.189 31.722-11.754c9.706-3.584 20.591-1.781 28.627 4.742l23.463 19.033c4.027 3.317 9.238 5.328 14.919 5.328 4.298 0 8.327-1.151 11.796-3.162l-0.113 0.060 140.622-79.538c-13.988-55.572-44.787-102.545-86.593-136.491l-0.47-0.369c-27.424-22.446-60.236-39.443-96.138-48.784l-1.766-0.39h-0.022l-72.303 88.977c-4.335 5.287-6.963 12.118-6.963 19.564 0 1.154 0.063 2.293 0.186 3.414l-0.012-0.138 2.070 19.968c0.294 2.727 0.462 5.891 0.462 9.094 0 49.583-40.195 89.778-89.778 89.778-21.483 0-41.203-7.546-56.656-20.131l0.164 0.129-76.355-61.974c-42.785 101.955-15.538 224.211 74.618 297.361 32.41 26.582 72.139 45.451 115.71 53.221l1.538 0.227zM387.339 444.683l48.662-59.859c-82.373 1.809-154.915 42.341-200.364 104.055l-0.495 0.705 84.079 68.252c5.311 4.35 12.172 6.987 19.648 6.987 17.187 0 31.121-13.933 31.121-31.121 0-1.144-0.062-2.273-0.182-3.385l0.012 0.138-2.070-19.99c-0.317-2.821-0.497-6.092-0.497-9.405 0-21.459 7.581-41.147 20.211-56.532l-0.124 0.156zM66.649 640.223c0 90.312 31.744 175.75 89.956 243.578l43.142-43.097c-93.763-112.952-98.015-280.353-2.003-398.492 62.063-76.355 152.843-115.979 244.358-115.979 69.654 0 139.731 22.951 197.899 70.144l2.404 2.003 43.164-43.119c-64.77-55.866-149.749-89.891-242.674-89.891-0.381 0-0.761 0.001-1.141 0.002h0.059c-206.87 0-375.162 168.159-375.162 374.851z" />
<glyph unicode="&#xe932;" glyph-name="51" d="M992.384-62.285h-960.794c0 0 0 0 0 0-16.5 0-29.875 13.376-29.875 29.875 0 0.018 0 0.036 0 0.054v-0.003 896.998c0 16.512 13.363 29.901 29.875 29.901h91.699v33.869c0 16.514 13.387 29.901 29.901 29.901s29.901-13.387 29.901-29.901v-33.869h119.603v33.869c0 16.514 13.387 29.901 29.901 29.901s29.901-13.387 29.901-29.901v0-33.869h119.603v33.869c0 16.514 13.387 29.901 29.901 29.901s29.901-13.387 29.901-29.901v0-33.869h119.603v33.869c0 16.514 13.387 29.901 29.901 29.901s29.901-13.387 29.901-29.901v0-33.869h119.603v33.869c0 16.514 13.387 29.901 29.901 29.901s29.901-13.387 29.901-29.901v0-33.869h91.674c16.538 0 29.901-13.389 29.901-29.901v-896.998c0-16.538-13.363-29.926-29.901-29.926zM962.483 834.714h-61.773v-29.875c0-16.514-13.387-29.901-29.901-29.901s-29.901 13.387-29.901 29.901v29.875h-119.603v-29.875c0-16.514-13.387-29.901-29.901-29.901s-29.901 13.387-29.901 29.901v29.875h-119.603v-29.875c0-16.514-13.387-29.901-29.901-29.901s-29.901 13.387-29.901 29.901v29.875h-119.603v-29.875c0-16.514-13.387-29.901-29.901-29.901s-29.901 13.387-29.901 29.901v0 29.875h-119.603v-29.875c0-16.514-13.387-29.901-29.901-29.901s-29.901 13.387-29.901 29.901v0 29.875h-61.798v-119.578h900.992v119.578zM962.483 655.334h-900.992v-657.818h900.992v657.818zM212.992 535.731h119.603c16.512 0 29.901-13.389 29.901-29.901v-119.603c0-16.512-13.389-29.901-29.901-29.901h-119.603c-16.514 0-29.901 13.387-29.901 29.901v0 119.603c0 16.512 13.389 29.901 29.901 29.901zM242.893 416.128h59.802v59.802h-59.802v-59.802zM231.962 204.826l16.64-13.645 60.8 74.778c5.516 6.403 13.635 10.432 22.694 10.432 16.514 0 29.901-13.387 29.901-29.901 0-6.898-2.335-13.25-6.259-18.308l0.051 0.068-79.718-98.074c-5.526-6.765-13.867-11.050-23.21-11.050-7.218 0-13.838 2.557-19.005 6.815l0.051-0.041-39.859 32.691c-6.7 5.524-10.939 13.825-10.939 23.117 0 16.511 13.385 29.896 29.896 29.896 7.22 0 13.841-2.559 19.008-6.82l-0.051 0.041zM452.198 535.731h119.603c16.512 0 29.901-13.389 29.901-29.901v-119.603c0-16.512-13.389-29.901-29.901-29.901h-119.603c-16.514 0-29.901 13.387-29.901 29.901v0 119.603c0 16.512 13.389 29.901 29.901 29.901zM482.099 416.128h59.802v59.802h-59.802v-59.802zM452.198 298.522h119.603c16.512 0 29.901-13.363 29.901-29.901v-119.603c0-16.512-13.389-29.901-29.901-29.901h-119.603c-16.514 0-29.901 13.387-29.901 29.901v119.603c0 16.538 13.389 29.901 29.901 29.901zM482.099 178.918h59.802v59.802h-59.802v-59.802zM691.405 535.731h119.603c16.512 0 29.901-13.389 29.901-29.901v-119.603c0-16.512-13.389-29.901-29.901-29.901h-119.603c-16.514 0-29.901 13.387-29.901 29.901v0 119.603c0 16.512 13.389 29.901 29.901 29.901zM721.306 416.128h59.802v59.802h-59.802v-59.802zM691.405 298.522h119.603c16.512 0 29.901-13.363 29.901-29.901v-119.603c0-16.512-13.389-29.901-29.901-29.901h-119.603c-16.514 0-29.901 13.387-29.901 29.901v119.603c0 16.538 13.389 29.901 29.901 29.901zM721.306 178.918h59.802v59.802h-59.802v-59.802z" />
<glyph unicode="&#xe933;" glyph-name="52" d="M512-63.961c-282.782 0-512 229.218-512 512 0 282.742 229.218 511.961 512 511.961s512-229.218 512-511.961c0-282.782-229.218-512-512-512zM512 879.419c-238.277 0-431.419-193.142-431.419-431.419 0-238.238 193.142-431.38 431.419-431.38s431.419 193.142 431.419 431.38c0 238.277-193.142 431.419-431.419 431.419zM358.833 270.375l0.039 0.039-139.303 139.343 55.69 55.65 139.303-139.303 334.139 334.139 55.729-55.69-389.908-389.908-55.69 55.729z" />
<glyph unicode="&#xe934;" glyph-name="53" horiz-adv-x="1099" d="M940.956 947.063h-179.3c-62.152-0.060-114.787-40.738-132.796-96.916l-0.274-0.988c-50.952 22.415-110.346 35.485-172.786 35.54h-0.020c-241.040 0-437.148-195.884-437.148-436.674 0-240.765 196.108-436.649 437.148-436.649 59.417 0 118.534 12.238 172.806 35.515 18.283-57.167 70.918-97.844 133.063-97.904h179.307c76.825 0 139.339 62.439 139.339 139.189v719.697c-0.128 76.873-62.454 139.147-139.335 139.189h-0.004zM1017.831 256.562l-135.293-92.51v115.038l135.293 92.46v-114.988zM820.074 660.318v-115.063l-135.293 92.51v115.013l135.293-92.46zM455.78 396.051c-28.714 0.014-51.992 23.266-52.049 51.969v0.005c0.897 28.057 23.856 50.462 52.049 50.462s51.153-22.404 52.047-50.379l0.002-0.082c-0.057-28.708-23.335-51.96-52.048-51.974h-0.001zM622.317 479.22h-56.395c-2.332 8.114-5.189 15.123-8.687 21.742l0.295-0.613 64.787 64.712v-85.841zM565.922 416.83h56.395v-96.231l-68.483 68.408c5.195 8.617 9.266 17.957 12.088 27.823zM684.781 562.164l135.293-92.46v-115.013l-135.293 92.46v115.013zM514.872 545.954c-8.016 4.91-17.268 9.030-27.059 11.885l-0.814 0.203v137.541c47.875-6.123 90.47-25.018 125.331-53.121l-0.477 0.372-96.98-96.88zM424.56 558.043c-10.595-3.053-19.838-7.173-28.351-12.374l0.503 0.286-96.93 96.805c34.356 27.749 76.923 46.667 123.532 52.692l1.246 0.132v-137.541zM256.275 598.004l97.755-97.655c-3.18-6-6.029-13.009-8.165-20.322l-0.202-0.807h-137.74c5.848 45.298 23.115 85.724 48.795 119.388l-0.442-0.604zM345.662 416.83c2.797-9.865 6.868-19.206 12.088-27.823l-96.905-96.805c-27.797 34.292-46.752 76.811-52.791 123.383l-0.132 1.245h137.74zM403.406 346.374c6.693-3.422 13.762-6.269 21.154-8.342v-137.566c-45.34 5.832-85.816 23.072-119.546 48.725l0.612-0.447 97.78 97.63zM486.999 338.032c7.393 2.073 14.486 4.92 21.179 8.342l97.829-97.705c-33.145-25.167-73.635-42.379-117.736-48.071l-1.248-0.131v137.566h-0.025zM684.781 371.55l135.293-92.46v-115.038l-135.293 92.51v114.988zM1017.831 447.151l-135.293-92.46v115.013l135.293 92.46v-115.013zM1017.831 637.765l-135.293-92.51v115.063l135.293 92.46v-115.013zM1015.483 826.755l-132.945-90.861v148.805h58.418c35.865 0 66.085-24.701 74.527-57.943zM761.656 884.699h58.418v-148.805l-132.945 90.861c8.787 33.543 38.807 57.897 74.522 57.943h0.005zM81.071 448.025c0 206.373 168.111 374.284 374.709 374.284 58.618 0 114.613-13.112 166.537-38.937v-71.48c-47.139 30.132-104.625 48.028-166.291 48.028-0.087 0-0.173 0-0.26 0h0.014c-172.157 0-312.245-139.913-312.245-311.895s140.088-311.895 312.245-311.895c59.417 0 117.011 16.834 166.537 48.053v-71.48c-48.204-24.569-105.129-38.964-165.417-38.964-0.394 0-0.788 0.001-1.182 0.002h0.061c-206.598 0-374.709 167.911-374.709 374.284zM684.781 88.176v92.784l135.293-92.485v-77.1h-58.418c-42.419 0.028-76.804 34.387-76.875 76.793v0.007zM940.956 11.376h-58.418v77.1l135.293 92.485v-92.784c-0.071-42.413-34.456-76.772-76.872-76.8h-0.003z" />
<glyph unicode="&#xe935;" glyph-name="54" horiz-adv-x="922" d="M581.376 345.702v-247.526l-241.152-160.819v408.346l-331.597 452.352v160.666h904.32v-160.666l-331.571-452.352zM400.512 50.048l120.576 80.41v194.944h-120.576v-275.354zM385.638 385.715h150.323l287.36 392.064h-725.069l287.386-392.064zM852.685 898.381h-783.77v-60.314h783.77v60.314zM551.245 626.97v60.314h60.288v-60.314h-60.288zM430.669 506.342h60.288v-60.288h-60.288v60.288zM340.224 717.44h60.288v-60.314h-60.288v60.314z" />
<glyph unicode="&#xe936;" glyph-name="55" d="M942.53 33.405c-47.693-47.787-113.629-77.35-186.471-77.35-0.096 0-0.191 0-0.287 0h0.015c-44.856 0-89.862 11.389-130.398 34.416l-503.159 283.498c-62.492 36.113-103.893 102.573-103.998 178.71v0.015c0.009 69.894 34.902 131.637 88.216 168.767l0.672 0.443 0.050 0.025 438.172 310.272c23.211 16.113 51.981 25.742 83 25.742 59.987 0 111.563-36.009 134.293-87.591l0.369-0.939 235.195-544.418c42.034-97.58 22.303-213.616-55.671-291.59zM76.525 452.695c0.227-81.083 65.996-146.729 147.104-146.757h0.003c80.896 0 147.081 65.811 147.081 146.757 0 80.921-66.185 147.531-147.081 147.531-81.695 0-147.106-67.209-147.106-147.531zM690.576 873.035c-35.266 35.266-88.888 35.615-124.478 0-16.060-15.877-26.006-37.909-26.006-62.264s9.946-46.387 25.998-62.256l0.008-0.008c33.342-33.342 89.538-34.941 124.478 0 35.465 35.49 34.441 90.062 0 124.528zM755.737 738.242c-10.613-18.166-24.301-33.359-40.505-45.344l-0.405-0.286h-0.025c-23.918-17.587-53.953-28.145-86.454-28.145-40.512 0-77.193 16.404-103.762 42.932l0.002-0.002c-26.504 26.564-42.892 63.229-42.892 103.722 0 1.467 0.022 2.929 0.064 4.386l-0.005-0.214-225.555-159.744c97.829-15.66 172.806-100.652 172.806-202.852 0-94.882-64.637-174.954-152.176-198.456l233.672-131.671c-9.409 22.98-15.811 49.596-17.904 77.414l-0.053 0.884c-0.457 5.822-0.717 12.606-0.717 19.451 0 72.882 29.526 138.869 77.269 186.649l-0.002-0.002c85.167 85.192 211.818 98.454 309.373 47.254l-122.73 284.023zM901.045 365.456c-37.086 37.348-88.46 60.466-145.233 60.466s-108.147-23.118-145.221-60.454l-0.012-0.012c-37.377-37.087-60.514-88.477-60.514-145.271s23.138-108.184 60.501-145.258l0.013-0.013c37.181-37.167 88.538-60.154 145.265-60.154 45.501 0 87.548 14.79 121.595 39.824l-0.57-0.4c103.799 75.851 111.791 223.607 24.176 311.271zM652.063 116.424c-26.509 26.576-42.9 63.254-42.9 103.761s16.392 77.185 42.903 103.764l-0.003-0.003c26.565 26.512 63.236 42.906 103.736 42.906s77.171-16.394 103.739-42.909l-0.003 0.003c56.17-56.17 57.219-150.328 0-207.522-56.67-56.72-150.778-56.72-207.472 0zM818.051 282.462c-15.939 15.906-37.94 25.741-62.239 25.741s-46.3-9.836-62.241-25.743l0.002 0.002c-34.316-34.366-35.365-89.188 0-124.553 15.939-15.906 37.94-25.741 62.239-25.741s46.3 9.836 62.241 25.743l-0.002-0.002c15.904 15.954 25.737 37.967 25.737 62.277s-9.833 46.323-25.74 62.279l0.002-0.002zM735.057 199.418c-5.308 5.31-8.592 12.645-8.592 20.747 0 16.208 13.139 29.346 29.346 29.346s29.346-13.139 29.346-29.346c0-8.102-3.283-15.437-8.592-20.747v0c-10.939-10.939-30.57-10.939-41.509 0zM607.582 790.416c-11.464 11.464-10.415 31.070 0 41.509 5.276 5.116 12.479 8.269 20.42 8.269 16.208 0 29.346-13.139 29.346-29.346 0-7.946-3.158-15.155-8.288-20.439l0.007 0.007c-10.914-10.939-30.545-10.939-41.484 0zM223.632 365.406c-48.553 0-88.039 38.737-88.039 87.29 0.057 48.605 39.436 87.993 88.032 88.064h0.007c48.592-0.085 87.957-39.468 88.014-88.058v-0.006c0-48.553-39.486-87.29-88.014-87.29zM223.632 482.042c-0.008 0-0.018 0-0.027 0-16.283 0-29.507-13.094-29.718-29.326v-0.020c0.211-16.253 13.436-29.346 29.719-29.346 0.010 0 0.019 0 0.029 0h-0.001c0.001 0 0.002 0 0.002 0 16.283 0 29.507 13.094 29.718 29.326v0.020c-0.211 16.253-13.436 29.346-29.719 29.346-0.001 0-0.002 0-0.002 0v0z" />
</font>
</defs>
</svg>
